<?xml version="1.0" standalone="no"?>
<!DOCTYPE svg PUBLIC "-//W3C//DTD SVG 1.1//EN" "http://www.w3.org/Graphics/SVG/1.1/DTD/svg11.dtd" >
<svg xmlns="http://www.w3.org/2000/svg" xmlns:xlink="http://www.w3.org/1999/xlink" version="1.1">
<metadata>
Created by FontForge 20170731 at Fri Nov 27 03:17:31 2020
 By Aleksey,,,
Copyright (c) 2012 by Fontfabric LLC. All rights reserved.
</metadata>
<defs>
<font id="Nexa-BlackItalic" horiz-adv-x="1273" >
  <font-face 
    font-family="Nexa Black Italic"
    font-weight="900"
    font-style="italic"
    font-stretch="normal"
    units-per-em="2048"
    panose-1="2 0 0 0 0 0 0 0 0 0"
    ascent="1536"
    descent="-512"
    x-height="1012"
    cap-height="1434"
    bbox="-485 -625 2568 2030"
    underline-thickness="102"
    underline-position="-255"
    unicode-range="U+0020-FB02"
  />
<missing-glyph horiz-adv-x="1361" 
d="M561 270q0 -73 64 -98t128 10t64 109q0 70 -64 96t-128 -8t-64 -109zM451 907h221q6 50 56.5 86.5t109.5 36.5q56 0 94.5 -22.5t38.5 -75.5q0 -42 -24 -63.5t-77 -41t-79 -36.5q-2 -1 -18.5 -11.5t-22 -14.5t-21 -16t-23 -22t-21.5 -26t-22 -34t-18 -41t-17.5 -51
t-13.5 -61l220 -2q5 27 15.5 58.5t18.5 39.5q21 19 67 40t88 42.5t83.5 53.5t66.5 87.5t25 131.5q0 129 -92 196.5t-234 67.5q-159 0 -276.5 -83.5t-144.5 -238.5zM82 0l252 1434h1153l-252 -1434h-1153z" />
    <glyph glyph-name=".notdef" horiz-adv-x="1361" 
d="M561 270q0 -73 64 -98t128 10t64 109q0 70 -64 96t-128 -8t-64 -109zM451 907h221q6 50 56.5 86.5t109.5 36.5q56 0 94.5 -22.5t38.5 -75.5q0 -42 -24 -63.5t-77 -41t-79 -36.5q-2 -1 -18.5 -11.5t-22 -14.5t-21 -16t-23 -22t-21.5 -26t-22 -34t-18 -41t-17.5 -51
t-13.5 -61l220 -2q5 27 15.5 58.5t18.5 39.5q21 19 67 40t88 42.5t83.5 53.5t66.5 87.5t25 131.5q0 129 -92 196.5t-234 67.5q-159 0 -276.5 -83.5t-144.5 -238.5zM82 0l252 1434h1153l-252 -1434h-1153z" />
    <glyph glyph-name=".null" horiz-adv-x="0" 
 />
    <glyph glyph-name="nonmarkingreturn" horiz-adv-x="682" 
 />
    <glyph glyph-name="space" unicode=" " horiz-adv-x="473" 
 />
    <glyph glyph-name="exclam" unicode="!" horiz-adv-x="661" 
d="M500 471h-383l164 963h397zM219 -10q-89 0 -135.5 49.5t-46.5 120.5q0 90 69.5 160.5t184.5 70.5q90 0 138 -48.5t48 -119.5q0 -90 -70.5 -161.5t-187.5 -71.5z" />
    <glyph glyph-name="quotedbl" unicode="&#x22;" horiz-adv-x="966" 
d="M272 1436h308l-113 -559h-307zM692 1436h307l-112 -559h-307z" />
    <glyph glyph-name="numbersign" unicode="#" horiz-adv-x="1525" 
d="M653 1434h344l-127 -293h191l125 293h348l-127 -293h131l-49 -289h-203l-131 -297h148l-52 -291h-213l-110 -264h-346l110 264h-188l-113 -264h-342l111 264h-140l52 291h213l125 299h-152l49 287h223zM948 870h-190l-140 -327h191z" />
    <glyph glyph-name="dollar" unicode="$" horiz-adv-x="1409" 
d="M381 -225l35 192q-132 16 -233 72t-189 172l268 256q138 -162 391 -162q109 0 179.5 38t70.5 101q0 47 -56 78t-163 41q-54 5 -100.5 12.5t-93 19t-84.5 26.5t-72.5 36t-60 46.5t-44.5 59t-28 73t-8.5 88t12.5 104.5q25 117 98 205.5t172.5 139.5t222.5 73l33 186h344
l-31 -182q206 -31 345 -158l-246 -256q-115 99 -318 99q-89 0 -153 -32t-64 -97q0 -54 44 -73.5t151 -31.5q80 -9 150.5 -26t137 -49.5t114 -76t76 -108.5t28.5 -145q0 -113 -44 -205.5t-121.5 -155t-173.5 -103t-210 -59.5h2l-37 -198h-344z" />
    <glyph glyph-name="percent" unicode="%" horiz-adv-x="1851" 
d="M586 1454q79 0 140.5 -24t97.5 -65t54.5 -91.5t18.5 -108.5q0 -74 -27.5 -143.5t-79.5 -127t-136.5 -92t-188.5 -34.5q-79 0 -140.5 23.5t-97.5 64t-54.5 91t-18.5 108.5q0 73 28 143t80 127.5t136.5 93t187.5 35.5zM1354 1432h368l-1192 -1432h-374zM508 1020
q55 0 85 31.5t30 72.5q0 32 -21 54t-61 22q-52 0 -83.5 -32t-31.5 -72q0 -32 21 -54t61 -22zM1423 670q80 0 141.5 -24t98 -65t54.5 -91.5t18 -108.5q0 -74 -27.5 -143.5t-79.5 -127t-136.5 -92t-188.5 -34.5q-155 0 -233.5 82t-78.5 204q0 73 28 143t80.5 128t136.5 93.5
t187 35.5zM1348 236q54 0 83 31.5t29 72.5q0 32 -20.5 54t-61.5 22q-52 0 -82 -32t-30 -73q0 -32 21 -53.5t61 -21.5z" />
    <glyph glyph-name="ampersand" unicode="&#x26;" horiz-adv-x="1521" 
d="M457 440q-13 -69 38.5 -103t135.5 -34q95 0 171.5 48t90.5 130l18 97h-219q-39 0 -73.5 -6t-70 -20t-60 -42.5t-31.5 -69.5zM1360 1020h-369q1 63 -43 91t-112 28q-85 0 -146.5 -35.5t-68.5 -95.5q-9 -58 23.5 -98t115.5 -40h713l-52 -286h-145l-19 -111
q-11 -61 24.5 -97t107.5 -24l-62 -354q-55 -10 -103.5 -10t-97.5 13.5t-83.5 51.5t-47.5 99q-99 -88 -212.5 -131.5t-258.5 -43.5q-53 0 -101.5 5t-96.5 15.5t-87.5 28t-75.5 42.5t-60 58.5t-40.5 76.5t-18 96.5t8.5 118.5q14 83 86.5 171.5t175.5 141.5q-67 43 -94 124
t-16 169q12 98 62 176t119 125.5t157.5 79t171.5 43.5t168 12q90 0 166 -14t143 -46t108 -83t60 -124.5t0 -172.5z" />
    <glyph glyph-name="quotesingle" unicode="'" horiz-adv-x="546" 
d="M264 1436h307l-98 -559h-307z" />
    <glyph glyph-name="parenleft" unicode="(" horiz-adv-x="772" 
d="M750 1632l157 -200q-188 -133 -320.5 -340t-174.5 -441q-39 -219 15 -430.5t185 -337.5l-198 -217q-179 135 -271 343t-92 452q0 184 51.5 357.5t145.5 321t220.5 271.5t281.5 221z" />
    <glyph glyph-name="parenright" unicode=")" horiz-adv-x="772" 
d="M156 1432l209 200q170 -138 269 -356t99 -463q0 -341 -180 -640.5t-526 -506.5l-123 217q214 153 350.5 406t136.5 512q0 188 -62.5 357t-172.5 274z" />
    <glyph glyph-name="asterisk" unicode="*" horiz-adv-x="890" 
d="M817 948l-246 -162l-65 160l-121 -162l-199 142l152 135l-174 37l119 241l161 -69l17 176h272l-59 -178l198 78l27 -248l-184 -33z" />
    <glyph glyph-name="plus" unicode="+" horiz-adv-x="1060" 
d="M119 819h278l47 271h338l-47 -271h281l-55 -313h-281l-47 -273h-338l47 273h-279z" />
    <glyph glyph-name="comma" unicode="," horiz-adv-x="563" 
d="M393 154q0 -56 -43.5 -145t-138.5 -230h-197l80 211q-88 16 -88 108q0 90 70 142.5t162 52.5q66 0 110.5 -36.5t44.5 -102.5z" />
    <glyph glyph-name="hyphen" unicode="-" horiz-adv-x="1046" 
d="M82 444l53 299h823l-53 -299h-823z" />
    <glyph glyph-name="period" unicode="." horiz-adv-x="577" 
d="M180 -16q-83 0 -127.5 45t-44.5 112q0 82 65.5 147.5t172.5 65.5q85 0 130.5 -43t45.5 -108q0 -83 -65.5 -151t-176.5 -68z" />
    <glyph glyph-name="slash" unicode="/" horiz-adv-x="1114" 
d="M864 1540h355l-943 -1698h-350z" />
    <glyph glyph-name="zero" unicode="0" horiz-adv-x="1490" 
d="M528 803l-34 -195q-27 -158 28 -236.5t168 -78.5q114 0 198.5 79t110.5 236l35 195q27 152 -27.5 229.5t-166.5 77.5q-114 0 -199 -76.5t-113 -230.5zM96 608l35 197q25 136 78.5 246t126.5 184t165 123.5t191 71.5t207 22q137 0 245 -37.5t184.5 -116.5t102.5 -201.5
t-1 -291.5l-33 -195q-24 -134 -77 -243.5t-125 -184t-163 -125t-188.5 -73.5t-202.5 -23q-87 0 -164 15.5t-146.5 48t-120 84t-85 123.5t-41 165.5t11.5 210.5z" />
    <glyph glyph-name="one" unicode="1" horiz-adv-x="968" 
d="M-6 0l53 305h229l121 682l-227 -63l55 317l637 217l-205 -1153h213l-53 -305h-823z" />
    <glyph glyph-name="two" unicode="2" horiz-adv-x="1415" 
d="M578 981h-396q22 121 87.5 214t159.5 148.5t205 83t234 27.5q149 0 265 -41.5t187 -130.5t71 -215q0 -116 -34.5 -207.5t-96 -153.5t-149 -103t-190 -59t-223.5 -18q-35 0 -63 -3t-63.5 -13.5t-61 -29.5t-47 -53.5t-29.5 -82.5h823l-61 -344h-1210l59 334q89 512 711 512
q36 0 72.5 8.5t73.5 26.5t60 53t23 82q0 59 -49.5 88t-122.5 29q-192 0 -235 -152z" />
    <glyph glyph-name="three" unicode="3" horiz-adv-x="1425" 
d="M713 588h-260l49 286h241q34 0 66 5t66.5 17t58.5 37t31 60q11 54 -37.5 92.5t-139.5 38.5q-89 0 -155.5 -35t-79.5 -106h-389q20 102 70.5 184t118 135.5t152 89.5t169.5 51t174 15q99 0 190 -21.5t169.5 -65t125.5 -120.5t47 -178q0 -111 -68 -204t-177 -136
q90 -36 132 -104t42 -154q0 -109 -46.5 -197t-121 -143.5t-172 -93t-193.5 -53t-192 -15.5q-90 0 -173 16t-158 54t-126 94t-72.5 142.5t-1.5 193.5h398q-7 -47 7.5 -81t45.5 -53.5t70.5 -28.5t87.5 -9q89 0 157 43.5t68 120.5q0 20 -6.5 38t-23 39t-53.5 33.5t-91 12.5z
" />
    <glyph glyph-name="four" unicode="4" horiz-adv-x="1421" 
d="M950 1434h375l-151 -867h153l-57 -319h-154l-43 -248h-381l43 248h-731l33 336zM453 567h340l65 375z" />
    <glyph glyph-name="five" unicode="5" horiz-adv-x="1361" 
d="M1356 1432l-60 -330h-714l-29 -170h192q55 0 103 -3.5t97 -11.5t89 -21.5t78.5 -33.5t65.5 -46.5t49.5 -61.5t32 -79t12 -98t-11.5 -118q-18 -102 -68.5 -184.5t-118 -136t-152 -89.5t-167.5 -51.5t-168 -15.5q-133 0 -234 26.5t-173.5 83.5t-100.5 154t-6 229h395
q-14 -83 40 -125.5t132 -42.5q27 0 58 6.5t67.5 21.5t64 47t35.5 77q8 40 -1 69.5t-27.5 45.5t-46.5 25.5t-51 12t-50 2.5h-567l145 818h1090z" />
    <glyph glyph-name="six" unicode="6" horiz-adv-x="1449" 
d="M1409 1018h-387q6 62 -48 93.5t-145 31.5t-166.5 -46.5t-89.5 -125.5l-24 -135q69 45 165.5 71.5t184.5 26.5q207 0 331 -101t124 -286q0 -118 -41.5 -215t-110.5 -162t-162.5 -110t-195 -65t-209.5 -20q-95 0 -181 17.5t-161.5 56.5t-126.5 95.5t-72.5 141t-3.5 187.5
l86 498q17 99 66 181t117.5 138t155.5 94.5t179 56t189 17.5q101 0 185 -13.5t156.5 -46t118.5 -82t64.5 -125.5t1.5 -173zM692 307q106 0 180 51t74 138q0 70 -51 108.5t-141 38.5q-126 0 -196.5 -55t-70.5 -135q0 -61 53.5 -103.5t151.5 -42.5z" />
    <glyph glyph-name="seven" unicode="7" horiz-adv-x="1216" 
d="M475 0h-438l737 1102h-629l60 334h1130l-22 -183z" />
    <glyph glyph-name="eight" unicode="8" horiz-adv-x="1480" 
d="M739 598q-116 0 -189 -46t-73 -124q0 -62 58.5 -97.5t148.5 -35.5q96 0 170 38.5t84 110.5q12 69 -41 111.5t-158 42.5zM59 446q13 70 77.5 159t166.5 138q-102 83 -102 236t92 264.5t242.5 166t338.5 54.5q159 0 284 -41t201.5 -128t76.5 -208q0 -104 -54.5 -189
t-152.5 -140q75 -45 106 -119.5t31 -149.5q0 -109 -37.5 -197t-104 -147.5t-160.5 -99.5t-202.5 -58t-234.5 -18q-95 0 -175.5 11t-152 34.5t-122 61t-85 90.5t-41.5 122.5t8 157.5zM776 864q124 0 189 75q52 59 35 123q-18 66 -101 87q-31 8 -68 8q-124 0 -189 -75
q-51 -59 -34 -123q18 -67 102 -88q30 -7 66 -7z" />
    <glyph glyph-name="nine" unicode="9" horiz-adv-x="1454" 
d="M72 416h387q-6 -62 47.5 -93.5t144.5 -31.5q93 0 175 49t98 135l20 123q-81 -57 -165 -77.5t-183 -20.5q-207 0 -331 101t-124 286q0 118 41.5 215t111 162t163 109.5t195 64.5t208.5 20q95 0 181 -17.5t161.5 -56t126.5 -95t72.5 -141t3.5 -187.5l-84 -484
q-18 -105 -69 -190.5t-121.5 -142.5t-159 -95.5t-181.5 -56t-190 -17.5q-128 0 -228.5 23t-178 72.5t-110 137.5t-11.5 208zM803 1126q-106 0 -180 -50.5t-74 -137.5q0 -70 51 -108.5t141 -38.5q126 0 196.5 55t70.5 135q0 61 -53.5 103t-151.5 42z" />
    <glyph glyph-name="colon" unicode=":" horiz-adv-x="647" 
d="M39 141q0 98 71.5 154.5t165.5 56.5q74 0 126.5 -41t52.5 -114q0 -96 -74.5 -152.5t-167.5 -56.5q-73 0 -123.5 40.5t-50.5 112.5zM137 696q0 98 72 153.5t166 55.5q74 0 126 -40t52 -113q0 -97 -74 -153t-168 -56q-73 0 -123.5 40t-50.5 113z" />
    <glyph glyph-name="semicolon" unicode=";" horiz-adv-x="604" 
d="M129 698q0 91 67 143t154 52q69 0 117.5 -37t48.5 -104q0 -92 -68.5 -144.5t-156.5 -52.5q-69 0 -115.5 37t-46.5 106zM412 154q0 -56 -44 -144.5t-139 -230.5h-196l80 211q-88 16 -88 108q0 90 69.5 142.5t161.5 52.5q67 0 111.5 -36.5t44.5 -102.5z" />
    <glyph glyph-name="less" unicode="&#x3c;" horiz-adv-x="903" 
d="M508 633l246 -279l-279 -239l-407 508l4 24l592 506l190 -240z" />
    <glyph glyph-name="equal" unicode="=" horiz-adv-x="1142" 
d="M63 260l52 295h895l-52 -295h-895zM141 698l52 297h894l-51 -297h-895z" />
    <glyph glyph-name="greater" unicode="&#x3e;" horiz-adv-x="911" 
d="M63 336l359 297l-258 299l278 229l412 -512l-4 -28l-594 -512z" />
    <glyph glyph-name="question" unicode="?" horiz-adv-x="1234" 
d="M762 471h-397q22 95 56 165t86 117t85 68.5t97 55.5q7 4 11 6q57 31 85 57.5t34 58.5q11 51 -21.5 87t-105.5 36q-171 0 -196 -151h-361q9 114 65 207t142.5 151.5t191 89.5t216.5 31q90 0 169 -16t145.5 -51t110.5 -86t61.5 -126t0.5 -167q-11 -60 -40.5 -108.5
t-68.5 -81.5t-84 -61.5t-90 -55.5t-84 -57t-68 -73t-40 -96zM483 -10q-121 0 -165 86q-38 74 -1 163q37 91 127 130q50 22 109 22q123 0 168 -86q39 -73 2 -162q-37 -90 -127 -130q-52 -23 -113 -23z" />
    <glyph glyph-name="at" unicode="@" horiz-adv-x="1912" 
d="M1108 -39l59 -186q-182 -97 -376 -97q-115 0 -220 24.5t-198.5 78t-162.5 131.5t-109 191.5t-40 250.5q0 154 43.5 292.5t118.5 244.5t176 191.5t216.5 140t238.5 83.5t244 29q161 0 293.5 -39.5t232 -119t154.5 -208t55 -296.5q0 -307 -144.5 -499.5t-365.5 -192.5
q-65 0 -116 36.5t-62 124.5q-62 -80 -142.5 -113.5t-187.5 -33.5q-189 0 -298 106.5t-109 298.5q0 114 34.5 212.5t92.5 168t133.5 119.5t157.5 74t165 24q95 0 165 -36t93 -97l31 101l213 -35l-115 -658q-5 -23 2 -37.5t15.5 -18t15.5 -3.5q80 0 136.5 124.5t56.5 309.5
q0 245 -140 358t-405 113q-111 0 -220 -32t-205.5 -96t-170.5 -151t-117 -205.5t-43 -250.5q0 -126 42 -222t116.5 -152.5t168.5 -84.5t206 -28q152 0 272 65zM979 743q-88 0 -154 -44t-96.5 -107.5t-30.5 -132.5q0 -85 49.5 -142t147.5 -57q129 0 207 86t78 205
q0 85 -51 138.5t-150 53.5z" />
    <glyph glyph-name="A" unicode="A" horiz-adv-x="1636" 
d="M1141 0l-54 236h-641l-135 -236h-442l895 1434h410l389 -1434h-422zM1012 575l-103 447l-264 -447h367z" />
    <glyph glyph-name="B" unicode="B" horiz-adv-x="1517" 
d="M545 588l-49 -273h342q86 0 132 44.5t46 113.5q0 51 -33.5 83t-95.5 32h-342zM635 1106l-39 -219h324q70 0 109.5 34.5t39.5 90.5q0 42 -27 68t-79 26h-328zM293 1434h725q133 0 236 -36t166 -114t63 -190q0 -30 -4 -60t-17.5 -70.5t-36 -75.5t-62.5 -72t-93 -64
q72 -42 108.5 -117.5t36.5 -159.5q0 -104 -38.5 -187t-101 -135.5t-147 -87.5t-170.5 -49.5t-178 -15.5h-739z" />
    <glyph glyph-name="C" unicode="C" horiz-adv-x="1447" 
d="M1163 453l191 -267q-265 -223 -615 -223q-141 0 -254.5 32.5t-189.5 88t-127 134t-73.5 166.5t-22.5 189q0 107 27.5 213.5t79.5 206.5t133 186t181.5 150t232 100.5t278.5 36.5q320 0 516 -229l-293 -246q-110 125 -285 125q-90 0 -167.5 -30t-131 -79.5t-91.5 -113
t-55.5 -129t-17.5 -129.5t17 -120t53 -104t101 -76t151 -28q80 0 178.5 36.5t183.5 109.5z" />
    <glyph glyph-name="D" unicode="D" horiz-adv-x="1587" 
d="M293 1434h614q161 0 285 -44t200.5 -123.5t115 -184t38.5 -230.5q0 -132 -35 -256t-108 -232.5t-177 -189t-251 -127.5t-320 -47h-614zM635 1096l-133 -754h213q90 0 163.5 28.5t121.5 75t80.5 108t46.5 124.5t14 127q0 129 -72.5 210t-220.5 81h-213z" />
    <glyph glyph-name="E" unicode="E" horiz-adv-x="1363" 
d="M1247 342l-59 -342h-1147l252 1434h1091l-59 -340h-692l-35 -205h651l-59 -330h-651l-39 -217h747z" />
    <glyph glyph-name="F" unicode="F" horiz-adv-x="1296" 
d="M442 0h-401l252 1434h1077l-59 -340h-676l-47 -269h633l-60 -331h-633z" />
    <glyph glyph-name="G" unicode="G" horiz-adv-x="1550" 
d="M1528 1243l-271 -227q-107 119 -313 119q-208 0 -335 -131t-142 -365q-4 -62 14 -120.5t57 -107.5t106.5 -78.5t154.5 -29.5q173 0 288 74l33 184h-362l55 318h700l-112 -637q-88 -133 -270.5 -207t-395.5 -74q-141 0 -254.5 34t-188.5 92.5t-125.5 138.5t-72.5 168.5
t-22 187.5q0 107 27 214t79 207t132.5 185.5t181.5 149.5t233.5 100.5t280.5 36.5q160 0 287.5 -51t234.5 -181z" />
    <glyph glyph-name="H" unicode="H" horiz-adv-x="1615" 
d="M1364 -2h-401l96 543h-516l-97 -543h-405l252 1434h405l-94 -545h516l94 545h402z" />
    <glyph glyph-name="I" unicode="I" horiz-adv-x="696" 
d="M444 0h-403l252 1434h403z" />
    <glyph glyph-name="J" unicode="J" horiz-adv-x="1488" 
d="M27 618h395q-25 -152 35.5 -224t175.5 -72q129 0 213 77t110 222l84 473h-381l60 340h786l-143 -816q-20 -116 -59 -212.5t-103 -178.5t-150 -138.5t-204 -88t-262 -31.5q-320 0 -467.5 160.5t-89.5 488.5z" />
    <glyph glyph-name="K" unicode="K" horiz-adv-x="1439" 
d="M1561 1434l-5 -25l-700 -698q32 -44 222.5 -298t283.5 -388l-4 -25h-492l-182 258l-145 252l-93 -510h-405l252 1434h405l-82 -463q43 44 208.5 209.5t250.5 253.5h486z" />
    <glyph glyph-name="L" unicode="L" horiz-adv-x="1265" 
d="M293 1434h405l-190 -1090h686l-61 -344h-1092z" />
    <glyph glyph-name="M" unicode="M" horiz-adv-x="1892" 
d="M1239 0l156 877l-189 -203l-260 -254h-72l-155 237l-129 220l-148 -877h-401l252 1434h422l286 -486l467 486h424l-252 -1434h-401z" />
    <glyph glyph-name="N" unicode="N" horiz-adv-x="1638" 
d="M637 1434l469 -805q26 224 39 313l86 492h407l-252 -1434h-344l-462 772l-50 -313l-79 -459h-410l252 1434h344z" />
    <glyph glyph-name="O" unicode="O" horiz-adv-x="1738" 
d="M1698 850q3 -162 -41 -303t-127 -247t-198.5 -182t-258.5 -114.5t-303 -38.5q-207 0 -361 72t-240 212.5t-89 334.5q-4 199 66 366.5t194.5 280t296.5 175t371 62.5q207 0 361 -72.5t240 -212.5t89 -333zM1288 793q3 152 -82 240.5t-239 88.5q-197 0 -336 -136.5
t-142 -338.5q-3 -151 84 -243.5t236 -92.5q203 0 339.5 138t139.5 344z" />
    <glyph glyph-name="P" unicode="P" horiz-adv-x="1458" 
d="M637 1096l-62 -367h291q110 6 170 97q51 76 35 157q-15 81 -89 105q-24 8 -54 8h-291zM805 387h-291l-68 -387h-405l252 1434h696q123 0 219 -34.5t155 -95t89.5 -139t30.5 -170.5q0 -123 -45 -232t-129 -192.5t-214 -133t-290 -50.5z" />
    <glyph glyph-name="Q" unicode="Q" horiz-adv-x="1736" 
d="M1692 852q0 -302 -209 -559l131 -166l-318 -266l-147 184q-178 -78 -397 -78q-311 0 -492.5 163.5t-181.5 451.5q0 267 119 468.5t332 309.5t489 108q312 0 493 -164t181 -452zM1272 719q36 181 -47 293t-260 112q-129 0 -238 -62t-175 -172.5t-69 -244.5
q-3 -153 83.5 -242.5t236.5 -89.5q179 0 305 108t164 298z" />
    <glyph glyph-name="R" unicode="R" horiz-adv-x="1515" 
d="M1372 25l-4 -25h-430l-252 465h-158l-82 -465h-405l252 1434h700q118 0 211.5 -34t151 -92.5t87.5 -133.5t30 -160q0 -386 -388 -506zM938 1110h-295l-61 -344h299q95 6 154 91q51 73 38 150q-13 78 -88 97q-22 6 -47 6z" />
    <glyph glyph-name="S" unicode="S" horiz-adv-x="1368" 
d="M1350 1292l-246 -252q-108 93 -318 93q-56 0 -103 -12t-80.5 -41t-33.5 -72q0 -24 11 -41.5t27.5 -28t48 -18t58.5 -11.5t72 -8q80 -9 150.5 -28t137 -52.5t114 -79t76 -111t28.5 -145.5q0 -135 -59 -238.5t-161 -165t-228 -92t-271 -30.5q-200 0 -343 55.5t-253 196.5
l269 256q138 -162 391 -162q109 0 179.5 38t70.5 101q0 47 -56 78t-163 41q-90 9 -159.5 23t-137.5 42t-112.5 69t-71.5 104.5t-27 146.5q0 106 39.5 193.5t105.5 146t155 98.5t185 58t199 18q164 0 286.5 -40.5t219.5 -129.5z" />
    <glyph glyph-name="T" unicode="T" horiz-adv-x="1300" 
d="M340 0l195 1100h-418l59 334h1241l-59 -334h-420l-195 -1100h-403z" />
    <glyph glyph-name="U" unicode="U" horiz-adv-x="1603" 
d="M1221 1432h403l-141 -801q-55 -322 -248 -490t-524 -168q-323 0 -479 170t-99 492l139 797h404l-139 -797q-30 -163 28.5 -241.5t186.5 -78.5q127 0 213.5 79t113.5 237z" />
    <glyph glyph-name="V" unicode="V" horiz-adv-x="1533" 
d="M1702 1434l-850 -1440h-395l-342 1440h448l88 -430l86 -531l277 531l239 430h449z" />
    <glyph glyph-name="W" unicode="W" horiz-adv-x="2189" 
d="M2339 1434l-758 -1432h-346l-133 686l-367 -686h-327l-283 1432h442q51 -283 77.5 -467.5t30.5 -238.5t5 -130l412 836h280l125 -836l399 836h443z" />
    <glyph glyph-name="X" unicode="X" horiz-adv-x="1462" 
d="M602 1434l205 -455l338 455h436l-4 -23l-571 -711l356 -684l-2 -16h-440l-215 428l-371 -428h-440l2 16l606 725l-330 670l4 23h426z" />
    <glyph glyph-name="Y" unicode="Y" horiz-adv-x="1480" 
d="M563 1434l211 -492l395 492h476l-3 -19l-718 -844l-101 -571h-405l100 571l-395 846l2 17h438z" />
    <glyph glyph-name="Z" unicode="Z" horiz-adv-x="1318" 
d="M176 1106l57 328h1149l-18 -115l-799 -969h643l-61 -350h-1200l22 127l813 979h-606z" />
    <glyph glyph-name="bracketleft" unicode="[" horiz-adv-x="761" 
d="M526 -322h-555l312 1762h555l-54 -297h-217l-205 -1168h218z" />
    <glyph glyph-name="backslash" unicode="\" horiz-adv-x="1081" 
d="M209 1540h352l344 -1698h-354z" />
    <glyph glyph-name="bracketright" unicode="]" horiz-adv-x="768" 
d="M469 -322h-559l53 297h217l205 1168h-217l53 297h559z" />
    <glyph glyph-name="asciicircum" unicode="^" horiz-adv-x="1316" 
d="M96 678l4 27l586 710h217l357 -708l-5 -29h-362l-168 352l-276 -352h-353z" />
    <glyph glyph-name="underscore" unicode="_" horiz-adv-x="1038" 
d="M-133 -293l53 299h1010l-53 -299h-1010z" />
    <glyph glyph-name="grave" unicode="`" horiz-adv-x="589" 
d="M244 1419l2 17h395l100 -330l-2 -12h-329z" />
    <glyph glyph-name="a" unicode="a" horiz-adv-x="1331" 
d="M901 903l37 109h354l-178 -1012h-348l2 109q-72 -69 -168.5 -100.5t-187.5 -26.5q-184 10 -282.5 125t-98.5 299q0 172 78.5 316t215.5 228t302 84q212 0 274 -131zM659 729q-101 0 -174 -73.5t-73 -192.5q0 -83 47 -130.5t121 -47.5q106 0 180 79t74 187
q0 83 -45.5 130.5t-129.5 47.5z" />
    <glyph glyph-name="b" unicode="b" horiz-adv-x="1320" 
d="M633 1434l-88 -508q108 108 299 108q189 0 299 -119.5t110 -312.5q0 -270 -150.5 -437.5t-416.5 -182.5q-93 -5 -177 26t-134 101l-35 -109h-336l252 1434h377zM705 729q-110 0 -179 -82t-69 -184q0 -73 45.5 -125.5t124.5 -52.5q101 0 173 72t72 192q0 83 -46 131.5
t-121 48.5z" />
    <glyph glyph-name="c" unicode="c" horiz-adv-x="1064" 
d="M795 377l176 -225q-219 -172 -449 -172q-101 0 -187.5 24.5t-155.5 74.5t-108.5 134t-39.5 195q0 125 39 230.5t105 177t153 122t181.5 73.5t192.5 23q112 0 209 -40t160 -117l-237 -218q-59 74 -162 74q-118 0 -192 -79t-74 -185q0 -76 48 -126t138 -50q113 0 203 84z
" />
    <glyph glyph-name="d" unicode="d" horiz-adv-x="1320" 
d="M889 926l90 508h377l-252 -1434h-336l2 109q-72 -69 -168.5 -100.5t-187.5 -26.5q-186 10 -284.5 118t-98.5 295q0 136 46 255t126 203t190.5 132.5t235.5 48.5q192 0 260 -108zM659 729q-101 0 -173 -73.5t-72 -192.5q0 -83 46.5 -130.5t121.5 -47.5q104 0 174.5 77
t70.5 179q0 80 -43 134t-125 54z" />
    <glyph glyph-name="e" unicode="e" horiz-adv-x="1210" 
d="M449 641h366q9 76 -71.5 108t-175 1.5t-119.5 -109.5zM698 1036q181 0 301 -76.5t154 -218t-43 -342.5h-707q7 -62 69.5 -95.5t133.5 -33.5q151 0 275 82l147 -207q-102 -83 -229 -125.5t-260 -42.5q-109 0 -200 26t-160.5 78t-108.5 136t-39 193q0 125 40 230.5
t106.5 177t153.5 122t180 73.5t187 23z" />
    <glyph glyph-name="f" unicode="f" horiz-adv-x="878" 
d="M483 0h-377l123 702h-172l52 291h172l8 49q15 86 53 156.5t89 117.5t113.5 79.5t126 46.5t128.5 14q193 0 284 -110l-153 -228q-49 49 -129 49q-48 0 -86 -31.5t-49 -93.5l-9 -49h263l-52 -291h-262z" />
    <glyph glyph-name="g" unicode="g" horiz-adv-x="1331" 
d="M659 729q-102 0 -174.5 -73t-72.5 -189q0 -82 47.5 -129t122.5 -47q105 0 178.5 76.5t73.5 181.5q0 83 -46 131.5t-129 48.5zM-23 -78h375q-3 -62 43.5 -92.5t118.5 -30.5q92 0 156.5 53t79.5 142l22 133q-67 -76 -162.5 -105t-193.5 -24q-186 10 -285.5 120t-99.5 290
q0 173 78.5 317t215.5 226.5t302 82.5q213 0 272 -131l39 109h354l-178 -1008q-22 -127 -82.5 -225t-148 -159t-194 -92.5t-228.5 -31.5q-161 0 -274.5 45t-171 142t-38.5 239z" />
    <glyph glyph-name="h" unicode="h" horiz-adv-x="1257" 
d="M256 1434h381l-92 -531q66 69 134.5 100t158.5 31q80 0 144 -26t112 -83t62.5 -147t-5.5 -217l-98 -561h-375l98 559q21 150 -110 150q-62 0 -117.5 -45.5t-71.5 -128.5l-94 -535h-379z" />
    <glyph glyph-name="i" unicode="i" horiz-adv-x="602" 
d="M203 1243q0 101 76.5 160t173.5 59q75 0 127.5 -43t52.5 -119q0 -101 -76 -159t-172 -58q-76 0 -129 42.5t-53 117.5zM4 0h379l176 995h-379z" />
    <glyph glyph-name="j" unicode="j" horiz-adv-x="600" 
d="M203 1243q0 101 77 160t173 59q75 0 128.5 -43t53.5 -119q0 -101 -76 -159t-172 -58q-76 0 -130 42.5t-54 117.5zM-203 -147l-119 -265q110 -59 223 -64.5t208.5 39t166.5 145.5t97 245l184 1042h-377l-184 -1042q-17 -93 -71.5 -119.5t-127.5 19.5z" />
    <glyph glyph-name="k" unicode="k" horiz-adv-x="1163" 
d="M256 1434h379l-125 -719l262 297h420l-2 -17l-436 -458l321 -514l-4 -23h-426l-201 352l-61 -352h-379z" />
    <glyph glyph-name="l" unicode="l" horiz-adv-x="593" 
d="M258 1436h373l-254 -1436h-373z" />
    <glyph glyph-name="m" unicode="m" horiz-adv-x="1806" 
d="M989 0h-371l99 561q15 85 -5 120.5t-73 35.5t-100.5 -42t-61.5 -120l-98 -555h-375l178 1012h318l8 -109q57 64 138.5 97.5t162.5 31.5q79 -2 140.5 -38.5t86.5 -104.5q142 145 361 145q175 0 260 -115.5t43 -355.5l-98 -563h-377l98 561q13 75 -10 112.5t-68 37.5
q-54 0 -100 -38.5t-58 -115.5z" />
    <glyph glyph-name="n" unicode="n" 
d="M1069 0h-377l99 559q16 87 -17.5 127.5t-93.5 40.5q-73 0 -133 -50.5t-76 -144.5l-94 -532h-373l178 1012h334l-2 -111q72 70 163.5 103.5t178.5 31.5q55 -1 101.5 -11t88 -33t69.5 -59.5t46.5 -89t19 -122.5t-13.5 -160z" />
    <glyph glyph-name="o" unicode="o" horiz-adv-x="1271" 
d="M713 1034q102 0 189.5 -26.5t156 -79t108 -138t39.5 -194.5q0 -125 -40.5 -229.5t-107.5 -175.5t-156 -120.5t-184.5 -72.5t-193.5 -23q-100 0 -187 26.5t-156.5 78.5t-109.5 138t-40 196q0 126 39.5 230.5t105.5 175.5t154.5 120t184.5 71.5t198 22.5zM580 285
q106 0 178.5 75.5t72.5 180.5q0 79 -45.5 131.5t-128.5 52.5q-110 0 -180.5 -77.5t-70.5 -180.5q0 -78 45.5 -130t128.5 -52z" />
    <glyph glyph-name="p" unicode="p" horiz-adv-x="1320" 
d="M397 86l-90 -508h-377l252 1434h336l-2 -109q74 69 170 100.5t186 26.5q186 -10 284.5 -118t98.5 -296q0 -136 -46 -255t-126 -203t-190.5 -132.5t-235.5 -48.5q-191 0 -260 109zM627 283q101 0 173 73.5t72 192.5q0 83 -46 130.5t-121 47.5q-104 0 -175 -77.5
t-71 -178.5q0 -80 43 -134t125 -54z" />
    <glyph glyph-name="q" unicode="q" horiz-adv-x="1323" 
d="M653 -422l90 508q-109 -109 -299 -109q-189 0 -299 119.5t-110 313.5q0 270 149.5 437.5t415.5 182.5q94 5 178.5 -26.5t132.5 -100.5l37 109h336l-254 -1434h-377zM584 283q110 0 178.5 82t68.5 184q0 74 -44.5 126t-124.5 52q-101 0 -173.5 -72t-72.5 -192
q0 -83 46.5 -131.5t121.5 -48.5z" />
    <glyph glyph-name="r" unicode="r" horiz-adv-x="968" 
d="M182 1012h338l4 -111q50 68 121 101.5t148 33.5t142.5 -28t104.5 -80l-200 -273q-37 35 -73 48.5t-85 13.5q-76 0 -133.5 -48t-75.5 -143l-92 -526h-377z" />
    <glyph glyph-name="s" unicode="s" horiz-adv-x="1050" 
d="M-47 106l172 275q62 -46 131.5 -72.5t110 -32t96.5 -8.5q112 0 112 56q0 22 -23.5 33t-74.5 16q-56 2 -108 11.5t-102.5 31t-87.5 52.5t-60 79t-23 108q0 81 30.5 146.5t81 108.5t119.5 72t144 41.5t156 12.5q121 0 224 -33t167 -90l-199 -225q-36 26 -108.5 44
t-135.5 18q-98 0 -98 -56q0 -16 15.5 -29t52.5 -14q411 -13 411 -280q0 -83 -30 -151t-81 -113.5t-120.5 -76t-145.5 -44t-159 -13.5q-135 0 -264.5 35.5t-202.5 97.5z" />
    <glyph glyph-name="t" unicode="t" horiz-adv-x="874" 
d="M309 1257l381 41l-51 -292h227l-51 -289h-229l-60 -332q-14 -98 84 -98q56 0 117 35l33 -279q-130 -68 -303 -68q-52 0 -96.5 8.5t-85 27.5t-68 50t-46.5 76.5t-19.5 107t12.5 140.5l59 332h-162l51 289h162z" />
    <glyph glyph-name="u" unicode="u" 
d="M168 1012h377l-99 -559q-16 -87 18.5 -127.5t94.5 -40.5q74 0 131.5 47t75.5 141l94 539h373l-178 -1012h-334l4 111q-73 -71 -165 -104.5t-179 -31.5q-67 1 -120.5 16t-99 49t-70.5 88.5t-33.5 135t12.5 187.5z" />
    <glyph glyph-name="v" unicode="v" horiz-adv-x="1206" 
d="M455 1012l61 -283l49 -328l162 328l158 283h399l-598 -1018h-375l-256 1018h400z" />
    <glyph glyph-name="w" unicode="w" horiz-adv-x="1710" 
d="M811 1012h227l80 -563l125 286l143 277h396l-551 -1018h-346l-74 383l-207 -383h-350l-188 1018h393l47 -279l29 -284z" />
    <glyph glyph-name="x" unicode="x" horiz-adv-x="1159" 
d="M592 113l-68 172l-129 -172l-86 -113h-415l430 508l-222 485l2 19h406l49 -123l45 -144l96 142l93 125h405l-2 -19l-391 -483l248 -510h-416z" />
    <glyph glyph-name="y" unicode="y" horiz-adv-x="1271" 
d="M541 1012l-88 -500q-39 -221 122 -221q45 0 80.5 20t57 54t34 68t19.5 73l90 506h377l-180 -1018q-44 -252 -208 -375t-403 -123q-234 0 -353 107t-91 319h354q-4 -70 37.5 -96.5t110.5 -26.5q85 0 129.5 49t60.5 142l25 137q-58 -72 -122 -100.5t-153 -28.5
q-95 0 -166.5 24.5t-115 69.5t-68 108t-25.5 140t13 166l90 506h373z" />
    <glyph glyph-name="z" unicode="z" horiz-adv-x="1013" 
d="M158 1012h846l-23 -127l-483 -561h403l-57 -324h-903l20 117l508 596h-365z" />
    <glyph glyph-name="braceleft" unicode="{" horiz-adv-x="790" 
d="M604 -29l-49 -270q-113 -20 -193 -20q-341 0 -280 358l51 289q6 18 4 38t-10 36.5t-34 27t-68 10.5l47 262q42 0 71 10t44 28.5t21.5 35.5t10.5 41l49 273q32 184 128.5 280t279.5 96q86 0 188 -18l-45 -250q-36 8 -64 7.5t-57 -10.5t-49 -40.5t-28 -79.5l-52 -287
q-8 -48 -13 -69t-19 -54t-39 -55.5t-64 -42.5q37 -23 53.5 -57t14.5 -72t-8 -84l-50 -278q-6 -36 1 -60t20 -35t39 -14t46 -2t54 6z" />
    <glyph glyph-name="bar" unicode="|" horiz-adv-x="638" 
d="M668 1536l-297 -1679h-367l297 1679h367z" />
    <glyph glyph-name="braceright" unicode="}" horiz-adv-x="790" 
d="M-84 -299l47 270q32 -5 52 -6t47 2t44 14t32 35t22 60l49 278q14 79 41.5 129t93.5 84q-25 15 -40.5 34.5t-22 35.5t-6.5 43.5t2 43.5t8 52q1 8 2 12l49 287q10 41 2 67t-20 40.5t-37 19.5t-48 3.5t-53 -7.5l43 250q108 18 195 18q183 0 244.5 -96t29.5 -280l-47 -273
q-6 -20 -3.5 -40.5t10.5 -37t34 -27t68 -10.5l-45 -262q-132 0 -150 -112l-51 -289q-31 -170 -130.5 -264t-275.5 -94q-81 0 -186 20z" />
    <glyph glyph-name="asciitilde" unicode="~" horiz-adv-x="1271" 
d="M317 426l-235 92q46 145 151.5 233t249.5 85q55 -1 116.5 -28.5t106 -55t90 -44t87 6.5t78.5 94l235 -92q-46 -145 -151.5 -233t-249.5 -85q-55 1 -111 28.5t-95.5 55t-81.5 44t-89.5 -6.5t-100.5 -94z" />
    <glyph glyph-name="exclamdown" unicode="&#xa1;" horiz-adv-x="624" 
d="M494 551h-383l-179 -963h398zM389 1032q121 0 165 -86q38 -74 1 -163q-37 -91 -127 -130q-50 -22 -109 -22q-123 0 -168 86q-39 73 -2 162q37 90 127 130q52 23 113 23z" />
    <glyph glyph-name="cent" unicode="&#xa2;" horiz-adv-x="1153" 
d="M827 377l177 -225q-157 -123 -324 -158l-27 -156h-329l28 168q-133 39 -211 139.5t-78 262.5q0 121 37 223.5t102.5 175t147.5 122t180 77.5l31 174h330l-29 -160q151 -32 242 -143l-238 -218q-59 74 -161 74q-118 0 -192.5 -79t-74.5 -185q0 -76 48.5 -126t138.5 -50
q112 0 202 84z" />
    <glyph glyph-name="sterling" unicode="&#xa3;" horiz-adv-x="1368" 
d="M655 897q0 -54 2 -72h387l-49 -278h-340q-2 -54 -32 -122.5t-70 -102.5h682l-57 -322h-1180l57 319q91 3 150.5 75t66.5 153h-178l49 278h123q0 6 -1 29.5t-1 30.5q0 253 169.5 411t457.5 158q118 0 208 -28.5t149.5 -86t78.5 -145t-6 -205.5h-358q12 73 -19.5 110.5
t-95.5 37.5q-89 0 -141 -59.5t-52 -180.5z" />
    <glyph glyph-name="currency" unicode="&#xa4;" horiz-adv-x="1296" 
d="M627 477q85 0 135.5 50.5t50.5 136.5q0 59 -35 91.5t-98 32.5q-83 0 -134.5 -50t-51.5 -134q0 -60 35.5 -93.5t97.5 -33.5zM729 1065q73 0 162 -21l164 142l202 -248l-135 -115q13 -47 13 -112q0 -140 -78 -269l92 -110l-291 -248l-113 137q-90 -22 -167 -22
q-91 0 -164 20l-158 -137l-205 248l133 114q-10 36 -10 109q0 136 76 266l-98 119l292 248l119 -142q80 21 166 21z" />
    <glyph glyph-name="yen" unicode="&#xa5;" horiz-adv-x="1638" 
d="M215 225l43 244h322l16 84h-322l45 260h164l-284 604l2 17h450l109 -252l100 -287l207 285l203 254h450l-2 -19l-516 -602h164l-45 -260h-328l-16 -84h328l-43 -244h-328l-39 -225h-397l39 225h-322z" />
    <glyph glyph-name="brokenbar" unicode="&#xa6;" horiz-adv-x="655" 
d="M535 694h-381l129 738h381zM133 573h381l-133 -749h-381z" />
    <glyph glyph-name="section" unicode="&#xa7;" horiz-adv-x="1312" 
d="M-4 141l205 240q167 -129 393 -129q205 0 205 67q0 26 -46 40.5t-130 13.5q-81 -1 -156 9t-143 35.5t-114.5 63.5t-66.5 97.5t-4 132.5q11 48 62 104.5t116 81.5q-53 32 -76.5 80.5t-23.5 95.5q0 85 40 153t103 109.5t147 69.5t165.5 38.5t165.5 10.5q143 0 252 -31
t202 -129l-233 -196q-82 73 -271 73q-184 0 -194 -59q-6 -27 36 -40t126 -13q43 0 82.5 -2t84 -7.5t81.5 -15t75 -23.5t65.5 -33t52 -44.5t35 -57.5t14 -72.5t-10.5 -88.5q-13 -47 -57.5 -99t-100.5 -86q43 -33 66.5 -83t23.5 -99q0 -69 -24.5 -126.5t-63.5 -96.5t-94.5 -69
t-112 -47t-120.5 -28t-115 -14.5t-102 -3.5q-85 0 -153 7t-139.5 25.5t-133.5 55t-113 90.5zM885 727q0 35 -47 53.5t-127 18.5q-219 0 -219 -84q0 -33 46 -52.5t119 -19.5q228 0 228 84z" />
    <glyph glyph-name="dieresis" unicode="&#xa8;" horiz-adv-x="1157" 
d="M301 1255q0 93 68.5 148t156.5 55q68 0 117 -40t49 -109q0 -90 -70 -143.5t-157 -53.5q-69 0 -116.5 38.5t-47.5 104.5zM895 1257q0 92 69.5 146.5t159.5 54.5q67 0 115.5 -40t48.5 -109q0 -89 -70.5 -143t-154.5 -54q-71 0 -119.5 38.5t-48.5 106.5z" />
    <glyph glyph-name="copyright" unicode="&#xa9;" horiz-adv-x="1685" 
d="M1004 1477q153 0 273.5 -46t198 -129t118 -194.5t40.5 -245.5q0 -182 -63.5 -343t-178 -280t-283.5 -188t-370 -69q-152 0 -275 46.5t-204 129.5t-124.5 197t-43.5 249q0 176 68.5 336t188 278.5t290.5 188.5t365 70zM479 657q0 -150 97.5 -236.5t242.5 -86.5
q185 0 344 133l-114 139q-79 -67 -177 -67q-74 0 -124 40t-50 113q0 109 71.5 167.5t170.5 58.5q42 0 83.5 -17.5t66.5 -44.5l159 135q-108 129 -284 129q-129 0 -239 -56.5t-178.5 -164t-68.5 -242.5zM319 631q0 -203 123 -327t334 -124q188 0 333 84t222.5 233t77.5 339
q0 203 -115 321.5t-325 118.5q-137 0 -257.5 -49t-207 -134.5t-136 -205.5t-49.5 -256z" />
    <glyph glyph-name="ordfeminine" unicode="&#xaa;" horiz-adv-x="897" 
d="M692 1335l41 86h219l-118 -680h-232l-2 90q-69 -102 -227 -102q-120 0 -191 73.5t-71 207.5q0 195 114 310.5t281 115.5q135 0 186 -101zM514 1204q-61 0 -102 -39.5t-41 -107.5q0 -48 27.5 -74.5t72.5 -26.5q63 0 103 44.5t40 99.5q0 43 -26 73.5t-74 30.5zM43 422
l39 217h727l-39 -217h-727z" />
    <glyph glyph-name="guillemotleft" unicode="&#xab;" horiz-adv-x="1144" 
d="M59 608l365 455h313v2l-364 -457q151 -348 205 -456h-314zM481 608l365 455h315v2l-364 -457l204 -456h-315z" />
    <glyph glyph-name="logicalnot" unicode="&#xac;" horiz-adv-x="1138" 
d="M1038 807l-94 -531h-315l45 256h-572l50 275h886z" />
    <glyph glyph-name="registered" unicode="&#xae;" horiz-adv-x="1685" 
d="M1153 348l-123 264q53 14 95.5 47.5t66.5 77t35 92t-1.5 95t-39.5 83.5t-81.5 60t-127.5 23h-340l-131 -742h211l39 221h86l84 -221h227zM811 907h141q51 0 62 -47q11 -44 -19 -84q-27 -35 -69 -35h-144zM1004 1477q153 0 273.5 -46t198 -129t118 -194.5t40.5 -245.5
q0 -182 -63.5 -343t-178 -280t-283.5 -188t-370 -69q-152 0 -275 46.5t-204 129.5t-124.5 197t-43.5 249q0 176 68.5 336t188 278.5t290.5 188.5t365 70zM319 631q0 -203 123 -327t334 -124q188 0 333 84t222.5 233t77.5 339q0 203 -115 321.5t-325 118.5q-137 0 -257.5 -49
t-207 -134.5t-136 -205.5t-49.5 -256z" />
    <glyph glyph-name="macron" unicode="&#xaf;" horiz-adv-x="927" 
d="M295 1149l51 287h717l-51 -287h-717z" />
    <glyph glyph-name="degree" unicode="&#xb0;" horiz-adv-x="798" 
d="M547 1450q137 0 208.5 -75t71.5 -181q0 -62 -26 -121t-74 -107.5t-123.5 -78t-165.5 -29.5q-136 0 -207 72.5t-71 177.5q0 61 26.5 121t74 109.5t122.5 80.5t164 31zM508 1243q-51 0 -81 -32t-30 -70q0 -33 20.5 -54.5t59.5 -21.5q49 0 80 31t31 71q0 32 -19.5 54
t-60.5 22z" />
    <glyph glyph-name="plusminus" unicode="&#xb1;" horiz-adv-x="1155" 
d="M135 672l58 319h280l47 275h348l-47 -275h279l-58 -319h-278l-47 -275h-348l47 275h-281zM12 -4l54 301h915l-53 -301h-916z" />
    <glyph glyph-name="twosuperior" unicode="&#xb2;" horiz-adv-x="776" 
d="M416 1303h-215q24 118 125.5 187t228.5 69q123 0 201 -57.5t78 -162.5q0 -44 -11.5 -81t-27 -62t-45.5 -47t-52.5 -34.5t-63 -25t-62 -17.5t-64.5 -14q-9 -2 -14 -3q-63 -13 -98 -28t-44 -44h416l-37 -209h-627l35 203q7 38 22.5 69.5t32 53.5t45 41t49 30t57 22.5
t54.5 16t56 13.5q51 11 78 19t50 25.5t23 41.5q0 27 -23 41t-61 14q-81 0 -106 -61z" />
    <glyph glyph-name="threesuperior" unicode="&#xb3;" horiz-adv-x="784" 
d="M469 1085h-127l29 164h118q57 0 85 19.5t28 48.5q0 25 -26 40t-70 15q-96 0 -121 -61h-197q11 62 48.5 111.5t89.5 78t108.5 43.5t112.5 15q71 0 131.5 -20.5t103.5 -70.5t43 -122q0 -58 -33 -107.5t-85 -73.5q41 -18 62.5 -55t21.5 -80q0 -80 -36 -136.5t-96.5 -84.5
t-121 -39.5t-129.5 -11.5q-63 0 -117.5 15t-97 44t-62 79.5t-8.5 115.5h229q-1 -31 24 -44.5t64 -13.5q47 0 82 19t35 55q0 26 -22.5 41.5t-65.5 15.5z" />
    <glyph glyph-name="acute" unicode="&#xb4;" horiz-adv-x="589" 
d="M817 1436l-2 -17l-280 -325h-330l2 12l215 330h395z" />
    <glyph glyph-name="paragraph" unicode="&#xb6;" horiz-adv-x="1830" 
d="M1020 1090l-264 -1500h-365l141 803q-222 0 -336 150q-97 127 -84 313q13 190 135 342q147 183 388 225q64 11 133 11h1122l-61 -344h-187l-264 -1500h-372l264 1500h-250z" />
    <glyph glyph-name="periodcentered" unicode="&#xb7;" horiz-adv-x="606" 
d="M266 408q-120 0 -164 84q-36 72 0 158q37 88 127 126q50 21 107 21q120 0 164 -84q36 -72 0 -158q-37 -88 -127 -126q-50 -21 -107 -21z" />
    <glyph glyph-name="cedilla" unicode="&#xb8;" horiz-adv-x="745" 
d="M14 -408l154 136q25 -30 69.5 -46.5t88.5 -7t61 49.5q15 35 -10.5 60.5t-67 27t-84.5 -20.5l-49 43l125 225h242l-58 -108q64 -7 108 -34t62 -67t14 -90t-30 -102q-35 -71 -101.5 -118.5t-142.5 -63.5t-151.5 -10t-137.5 39.5t-92 86.5z" />
    <glyph glyph-name="onesuperior" unicode="&#xb9;" horiz-adv-x="579" 
d="M96 776l35 195h125l57 323q-17 -3 -55.5 -11.5t-52.5 -10.5l33 190l337 86l-100 -577h129l-35 -195h-473z" />
    <glyph glyph-name="ordmasculine" unicode="&#xba;" horiz-adv-x="874" 
d="M29 371l45 254h729l-45 -254h-729zM451 705q-155 0 -246 79.5t-94 231.5q-4 203 131 322.5t342 119.5q158 0 249 -78t91 -225q0 -142 -64 -245.5t-170 -154t-239 -50.5zM496 961q61 0 104 39.5t43 107.5q0 48 -29 75t-75 27q-59 0 -103.5 -40.5t-44.5 -106.5
q0 -49 30 -75.5t75 -26.5z" />
    <glyph glyph-name="guillemotright" unicode="&#xbb;" horiz-adv-x="1142" 
d="M881 1067l204 -455l-364 -454h-315l364 454l-205 457v-2h316zM461 1067l205 -455l-365 -454h-313l364 454l-205 457v-2h314z" />
    <glyph glyph-name="onequarter" unicode="&#xbc;" horiz-adv-x="1634" 
d="M1225 762h278l-80 -445h90l-32 -194h-90l-23 -123h-213l23 123h-396l25 186zM1210 317l39 213q-33 -33 -99 -102.5t-108 -110.5h168zM416 -2h-248l1049 1444h251zM96 662l35 198h125l57 320q-9 -2 -51 -10.5t-59 -10.5l33 189l342 86l-101 -574h127l-35 -198h-473z" />
    <glyph glyph-name="onehalf" unicode="&#xbd;" horiz-adv-x="1671" 
d="M406 -4h-244l1048 1446h248zM94 659l35 199h125l57 320q-2 0 -108 -21l33 191l342 86l-103 -576h129l-35 -199h-475zM1165 518h-215q22 117 125 185.5t228 68.5q127 0 203.5 -55.5t76.5 -159.5q0 -46 -12 -84.5t-28.5 -65t-47 -49.5t-55 -36.5t-65 -26.5t-65 -18.5
t-65.5 -14.5q-45 -9 -66.5 -14.5t-45 -17.5t-31.5 -27h416l-39 -213h-627l37 203q7 43 23.5 78t43.5 59.5t51.5 41.5t63.5 30t63 19.5t66 16.5q28 6 40.5 9t35 9t33 11.5t23 13.5t17.5 18.5t5 22.5q0 26 -24 39.5t-56 13.5q-37 0 -68 -14.5t-41 -42.5z" />
    <glyph glyph-name="threequarters" unicode="&#xbe;" horiz-adv-x="1724" 
d="M514 -12h-250l1059 1454h252zM1315 762h276l-78 -445h91l-35 -194h-90l-23 -123h-213l23 123h-396l25 186zM1300 317l37 213l-202 -213h165zM461 993h-123l29 158h114q56 0 82.5 20t26.5 48q0 49 -90 49q-40 0 -74 -15t-43 -41h-190q10 60 46 108t85.5 75.5t104 42
t108.5 14.5q69 0 128 -20t100.5 -68.5t41.5 -118.5q0 -55 -31.5 -102.5t-81.5 -71.5q40 -18 60 -52.5t20 -76.5q0 -76 -35 -131t-93.5 -82.5t-118 -39t-124.5 -11.5q-83 0 -148.5 24t-103.5 81.5t-24 140.5h221q-1 -30 23.5 -43t62.5 -13q46 0 79.5 18t33.5 54
q0 24 -22 38.5t-64 14.5z" />
    <glyph glyph-name="questiondown" unicode="&#xbf;" horiz-adv-x="1216" 
d="M829 555h-397q-11 -53 -40 -97t-68 -75.5t-84.5 -60.5t-90.5 -59.5t-84.5 -65t-69 -84t-40.5 -109.5q-21 -114 10 -199t103 -133.5t165.5 -72t208.5 -23.5q112 0 216.5 31t191 89.5t143 151.5t66.5 207h-361q-29 -151 -196 -151q-73 0 -109 36.5t-26 86.5q7 32 37 58
t88 58q109 58 155 94q134 108 182 318zM711 1036q121 0 165 -86q37 -74 0 -163q-38 -91 -129 -130q-50 -22 -108 -22q-123 0 -168 86q-38 73 -1 162q37 90 128 130q52 23 113 23z" />
    <glyph glyph-name="Agrave" unicode="&#xc0;" horiz-adv-x="1636" 
d="M1141 0l-54 236h-641l-135 -236h-442l895 1434h410l389 -1434h-422zM1012 575l-103 447l-264 -447h367zM664 1866l2 16h395l100 -330l-2 -12h-330z" />
    <glyph glyph-name="Aacute" unicode="&#xc1;" horiz-adv-x="1636" 
d="M1087 236l54 -236h422l-389 1434h-410l-895 -1434h442l135 236h641zM909 1022l103 -447h-367zM1442 1882l-2 -16l-281 -326h-330l2 12l216 330h395z" />
    <glyph glyph-name="Acircumflex" unicode="&#xc2;" horiz-adv-x="1636" 
d="M1087 236l54 -236h422l-389 1434h-410l-895 -1434h442l135 236h641zM909 1022l103 -447h-367zM926 1874h233l254 -322l-2 -16h-324l-88 96l-120 -96h-324l2 16z" />
    <glyph glyph-name="Atilde" unicode="&#xc3;" horiz-adv-x="1636" 
d="M1141 0l-54 236h-641l-135 -236h-442l895 1434h410l389 -1434h-422zM1012 575l-103 447l-264 -447h367zM979 1579q-146 87 -219 -29l-185 131q37 68 95.5 114.5t122.5 64.5t130 11.5t119 -38.5q44 -26 79.5 -33.5t73.5 8.5t73 60l176 -129q-79 -142 -204 -186.5
t-261 26.5z" />
    <glyph glyph-name="Adieresis" unicode="&#xc4;" horiz-adv-x="1636" 
d="M1087 236l54 -236h422l-389 1434h-410l-895 -1434h442l135 236h641zM909 1022l103 -447h-367zM520 1673q0 93 68.5 148t156.5 55q68 0 117 -40.5t49 -109.5q0 -89 -70 -142.5t-157 -53.5q-69 0 -116.5 38.5t-47.5 104.5zM1114 1675q0 92 69.5 146.5t159.5 54.5
q67 0 115.5 -40.5t48.5 -109.5q0 -89 -70 -142.5t-155 -53.5q-71 0 -119.5 38.5t-48.5 106.5z" />
    <glyph glyph-name="Aring" unicode="&#xc5;" horiz-adv-x="1636" 
d="M1034 1800q111 0 181 -51t86.5 -124t-9 -155t-90.5 -143l361 -1327h-435l-53 236h-641l-135 -236h-430l833 1331q-33 49 -38.5 112t18.5 125t69.5 114.5t120 85t162.5 32.5zM952 786l-47 299l-151 -299l-121 -211h366zM1001 1595q-66 0 -97 -52q-27 -46 -4 -85
q21 -35 73 -35q65 0 94 54q25 45 3 84q-20 34 -69 34z" />
    <glyph glyph-name="AE" unicode="&#xc6;" horiz-adv-x="1900" 
d="M-154 0l4 23l1098 1411h983l-55 -324h-498l-41 -225h463l-55 -314h-463l-43 -249h528l-57 -322h-901l39 215h-426l-168 -215h-408zM686 569h223l47 238l70 254z" />
    <glyph glyph-name="Ccedilla" unicode="&#xc7;" horiz-adv-x="1449" 
d="M258 -453l156 131q27 -29 73 -45t91.5 -7t62.5 48q15 34 -11 59t-68.5 26.5t-86.5 -19.5l-53 43l117 199q-121 23 -212.5 79.5t-145.5 137t-80.5 174t-26.5 200.5t27.5 213.5t79.5 206.5t133 186t181.5 150t232 100.5t278.5 36.5q320 0 516 -229l-293 -246
q-110 125 -285 125q-90 0 -167.5 -30t-131 -79.5t-91.5 -113t-55.5 -129t-17.5 -129.5t17 -120t53 -104t101 -76t151 -28q80 0 178.5 36.5t183.5 109.5l191 -267q-249 -210 -580 -223l-37 -67q66 -7 111 -33.5t64 -65.5t16 -87t-29 -99q-45 -85 -138.5 -134t-190 -54
t-185.5 27.5t-129 96.5z" />
    <glyph glyph-name="Egrave" unicode="&#xc8;" horiz-adv-x="1363" 
d="M1247 342l-59 -342h-1147l252 1434h1091l-59 -340h-692l-35 -205h651l-59 -330h-651l-39 -217h747zM586 1864l2 16h395l100 -330l-2 -12h-329z" />
    <glyph glyph-name="Eacute" unicode="&#xc9;" horiz-adv-x="1363" 
d="M1188 0l59 342h-747l39 217h651l59 330h-651l35 205h692l59 340h-1091l-252 -1434h1147zM1311 1880l-2 -16l-281 -326h-330l2 12l215 330h396z" />
    <glyph glyph-name="Ecircumflex" unicode="&#xca;" horiz-adv-x="1363" 
d="M1188 0l59 342h-747l39 217h651l59 330h-651l35 205h692l59 340h-1091l-252 -1434h1147zM831 1868h234l254 -322l-2 -16h-324l-88 96l-121 -96h-323l2 16z" />
    <glyph glyph-name="Edieresis" unicode="&#xcb;" horiz-adv-x="1363" 
d="M1188 0l59 342h-747l39 217h651l59 330h-651l35 205h692l59 340h-1091l-252 -1434h1147zM424 1686q0 93 68 147.5t157 54.5q68 0 117 -40t49 -109q0 -90 -70 -143.5t-157 -53.5q-69 0 -116.5 39t-47.5 105zM1018 1688q0 91 69.5 145.5t159.5 54.5q67 0 115.5 -40
t48.5 -109q0 -89 -70.5 -143t-154.5 -54q-71 0 -119.5 39t-48.5 107z" />
    <glyph glyph-name="Igrave" unicode="&#xcc;" horiz-adv-x="696" 
d="M444 0h-403l252 1434h403zM205 1864l2 16h395l100 -330l-2 -12h-329z" />
    <glyph glyph-name="Iacute" unicode="&#xcd;" horiz-adv-x="696" 
d="M41 0h403l252 1434h-403zM942 1876l-2 -16l-281 -326h-329l2 12l215 330h395z" />
    <glyph glyph-name="Icircumflex" unicode="&#xce;" horiz-adv-x="696" 
d="M41 0h403l252 1434h-403zM461 1874h233l254 -322l-2 -16h-323l-88 96l-121 -96h-324l2 16z" />
    <glyph glyph-name="Idieresis" unicode="&#xcf;" horiz-adv-x="696" 
d="M96 1708q0 92 69.5 147.5t156.5 55.5q68 0 116.5 -40.5t48.5 -109.5q0 -89 -70 -142.5t-157 -53.5q-68 0 -116 38.5t-48 104.5zM635 1710q0 92 69.5 146.5t159.5 54.5q67 0 115.5 -40.5t48.5 -109.5q0 -89 -70 -142.5t-155 -53.5q-71 0 -119.5 38.5t-48.5 106.5zM41 0
h403l252 1434h-403z" />
    <glyph glyph-name="Eth" unicode="&#xd0;" horiz-adv-x="1587" 
d="M8 575l51 291h160l100 568h572q159 0 285 -44.5t207 -123.5t123 -184.5t42 -231.5q0 -131 -36.5 -254.5t-111.5 -231.5t-181.5 -189t-256.5 -128t-325 -47h-571l102 575h-160zM559 575l-43 -243h180q183 0 293 106.5t146 300.5q35 185 -43 278t-258 93h-181l-43 -244h248
l-51 -291h-248z" />
    <glyph glyph-name="Ntilde" unicode="&#xd1;" horiz-adv-x="1638" 
d="M637 1434l469 -805q26 224 39 313l86 492h407l-252 -1434h-344l-462 772l-50 -313l-79 -459h-410l252 1434h344zM956 1612q-155 93 -233 -31l-195 139q40 73 102 122.5t129 68t136.5 12t126.5 -40.5q47 -28 85 -36t78 9t77 64l188 -137q-86 -151 -218 -198.5t-276 28.5z
" />
    <glyph glyph-name="Ograve" unicode="&#xd2;" horiz-adv-x="1738" 
d="M1698 850q3 -162 -41 -303t-127 -247t-198.5 -182t-258.5 -114.5t-303 -38.5q-207 0 -361 72t-240 212.5t-89 334.5q-4 199 66 366.5t194.5 280t296.5 175t371 62.5q207 0 361 -72.5t240 -212.5t89 -333zM1288 793q3 152 -82 240.5t-239 88.5q-197 0 -336 -136.5
t-142 -338.5q-3 -151 84 -243.5t236 -92.5q203 0 339.5 138t139.5 344zM735 1937l2 17h396l100 -330l-2 -12h-330z" />
    <glyph glyph-name="Oacute" unicode="&#xd3;" horiz-adv-x="1738" 
d="M1698 850q-3 193 -89 333t-240 212.5t-361 72.5q-199 0 -371 -62.5t-296.5 -175t-194.5 -280t-66 -366.5q3 -194 89 -334.5t240 -212.5t361 -72q160 0 303 38.5t258.5 114.5t198.5 182t127 247t41 303zM1288 793q-3 -206 -139.5 -344t-339.5 -138q-149 0 -236 92.5
t-84 243.5q3 202 142 338.5t336 136.5q154 0 239 -88.5t82 -240.5zM1485 1942l-2 -17l-281 -326h-330l2 13l216 330h395z" />
    <glyph glyph-name="Ocircumflex" unicode="&#xd4;" horiz-adv-x="1738" 
d="M1698 850q-3 193 -89 333t-240 212.5t-361 72.5q-199 0 -371 -62.5t-296.5 -175t-194.5 -280t-66 -366.5q3 -194 89 -334.5t240 -212.5t361 -72q160 0 303 38.5t258.5 114.5t198.5 182t127 247t41 303zM1288 793q-3 -206 -139.5 -344t-339.5 -138q-149 0 -236 92.5
t-84 243.5q3 202 142 338.5t336 136.5q154 0 239 -88.5t82 -240.5zM989 1925h234l254 -321l-2 -17h-324l-88 96l-121 -96h-324l3 17z" />
    <glyph glyph-name="Otilde" unicode="&#xd5;" horiz-adv-x="1738" 
d="M1698 850q3 -162 -41 -303t-127 -247t-198.5 -182t-258.5 -114.5t-303 -38.5q-207 0 -361 72t-240 212.5t-89 334.5q-4 199 66 366.5t194.5 280t296.5 175t371 62.5q207 0 361 -72.5t240 -212.5t89 -333zM1288 793q3 152 -82 240.5t-239 88.5q-197 0 -336 -136.5
t-142 -338.5q-3 -151 84 -243.5t236 -92.5q203 0 339.5 138t139.5 344zM1026 1630q-153 94 -229 -28l-193 137q38 72 99.5 120t128 66.5t135.5 11.5t125 -41q46 -27 83.5 -35t77 9t76.5 63l184 -135q-85 -149 -215 -195.5t-272 27.5z" />
    <glyph glyph-name="Odieresis" unicode="&#xd6;" horiz-adv-x="1738" 
d="M1698 850q-3 193 -89 333t-240 212.5t-361 72.5q-199 0 -371 -62.5t-296.5 -175t-194.5 -280t-66 -366.5q3 -194 89 -334.5t240 -212.5t361 -72q160 0 303 38.5t258.5 114.5t198.5 182t127 247t41 303zM1288 793q-3 -206 -139.5 -344t-339.5 -138q-149 0 -236 92.5
t-84 243.5q3 202 142 338.5t336 136.5q154 0 239 -88.5t82 -240.5zM571 1716q0 93 68.5 148t157.5 55q68 0 117 -40.5t49 -109.5q0 -89 -70.5 -142.5t-157.5 -53.5q-69 0 -116.5 38.5t-47.5 104.5zM1165 1718q0 91 70 146t160 55q67 0 115.5 -40.5t48.5 -109.5
q0 -89 -70.5 -142.5t-155.5 -53.5q-71 0 -119.5 38.5t-48.5 106.5z" />
    <glyph glyph-name="multiply" unicode="&#xd7;" horiz-adv-x="976" 
d="M408 1040l131 -172l200 174l189 -227l-211 -182l147 -178l-270 -217l-139 172q-160 -140 -197 -174l-197 233l203 170l-137 170z" />
    <glyph glyph-name="Oslash" unicode="&#xd8;" horiz-adv-x="1736" 
d="M1427 1575h355l-238 -287q75 -75 115.5 -189t40.5 -249q0 -202 -72 -370t-198.5 -280t-299.5 -173.5t-374 -61.5q-148 0 -273 35l-125 -152h-350l236 285q-80 75 -124 193t-44 258q0 160 47 300t133 246t202.5 182.5t260 116t301.5 39.5q157 0 285 -41zM961 1122
q-199 0 -335.5 -137t-136.5 -340q0 -96 33 -170l527 639q-58 8 -88 8zM1288 791q0 93 -24 155l-521 -629q37 -6 74 -6q202 0 336.5 137.5t134.5 342.5z" />
    <glyph glyph-name="Ugrave" unicode="&#xd9;" horiz-adv-x="1603" 
d="M1221 1432h403l-141 -801q-55 -322 -248 -490t-524 -168q-323 0 -479 170t-99 492l139 797h404l-139 -797q-30 -163 28.5 -241.5t186.5 -78.5q127 0 213.5 79t113.5 237zM659 1898l3 17h395l100 -330l-2 -12h-330z" />
    <glyph glyph-name="Uacute" unicode="&#xda;" horiz-adv-x="1603" 
d="M1624 1432h-403l-142 -801q-27 -158 -113.5 -237t-213.5 -79q-128 0 -186.5 78.5t-28.5 241.5l139 797h-404l-139 -797q-57 -322 99 -492t479 -170q331 0 524 168t248 490zM1386 1921l-2 -16l-280 -326h-330l2 12l215 330h395z" />
    <glyph glyph-name="Ucircumflex" unicode="&#xdb;" horiz-adv-x="1603" 
d="M1624 1432h-403l-142 -801q-27 -158 -113.5 -237t-213.5 -79q-128 0 -186.5 78.5t-28.5 241.5l139 797h-404l-139 -797q-57 -322 99 -492t479 -170q331 0 524 168t248 490zM926 1919h233l254 -322l-2 -16h-324l-88 96l-120 -96h-324l2 16z" />
    <glyph glyph-name="Udieresis" unicode="&#xdc;" horiz-adv-x="1603" 
d="M1624 1432h-403l-142 -801q-27 -158 -113.5 -237t-213.5 -79q-128 0 -186.5 78.5t-28.5 241.5l139 797h-404l-139 -797q-57 -322 99 -492t479 -170q331 0 524 168t248 490zM504 1710q0 93 68.5 148t156.5 55q68 0 117 -40.5t49 -109.5q0 -89 -70 -142.5t-157 -53.5
q-69 0 -116.5 38.5t-47.5 104.5zM1098 1712q0 92 69.5 146.5t159.5 54.5q67 0 115.5 -40.5t48.5 -109.5q0 -89 -70 -142.5t-155 -53.5q-71 0 -119.5 38.5t-48.5 106.5z" />
    <glyph glyph-name="Yacute" unicode="&#xdd;" horiz-adv-x="1480" 
d="M774 942l-211 492h-438l-2 -17l395 -846l-100 -571h405l101 571l718 844l3 19h-476zM1333 1892l-2 -16l-280 -326h-330l2 13l215 329h395z" />
    <glyph glyph-name="Thorn" unicode="&#xde;" horiz-adv-x="1431" 
d="M39 0l254 1434h401l-39 -222h275q123 0 220 -35.5t155.5 -96t89 -135.5t30.5 -159q0 -104 -42.5 -202t-122.5 -179t-211 -130.5t-293 -49.5h-275l-39 -225h-403zM596 874l-55 -317h274q103 5 163 83q50 66 35 136t-93 91q-23 6 -50 7h-274z" />
    <glyph glyph-name="germandbls" unicode="&#xdf;" horiz-adv-x="1302" 
d="M485 -10l54 299q60 -13 84 -13q56 0 97.5 19t62 44t32.5 59t14 53.5t2 37.5q0 37 -15 62.5t-42.5 38t-57 17.5t-67.5 5h-53l57 330h33q70 0 112 31t42 84q0 40 -31 63t-74 23q-60 0 -101.5 -29.5t-51.5 -81.5l-183 -1032h-395l182 1038q36 200 200.5 309t406.5 109
q89 0 166.5 -19.5t141 -58.5t100 -105.5t36.5 -154.5q0 -223 -233 -323q79 -30 129.5 -81.5t69 -105.5t18.5 -116q0 -121 -47.5 -219.5t-129 -161.5t-188 -97t-227.5 -34q-83 0 -144 10z" />
    <glyph glyph-name="agrave" unicode="&#xe0;" horiz-adv-x="1331" 
d="M901 903l37 109h354l-178 -1012h-348l2 109q-72 -69 -168.5 -100.5t-187.5 -26.5q-184 10 -282.5 125t-98.5 299q0 172 78.5 316t215.5 228t302 84q212 0 274 -131zM659 729q-101 0 -174 -73.5t-73 -192.5q0 -83 47 -130.5t121 -47.5q106 0 180 79t74 187
q0 83 -45.5 130.5t-129.5 47.5zM492 1450l2 14h387l98 -323l-2 -13h-324z" />
    <glyph glyph-name="aacute" unicode="&#xe1;" horiz-adv-x="1331" 
d="M938 1012l-37 -109q-62 131 -274 131q-165 0 -302 -84t-215.5 -228t-78.5 -316q0 -184 98.5 -299t282.5 -125q91 -5 187.5 26.5t168.5 100.5l-2 -109h348l178 1012h-354zM659 729q84 0 129.5 -47.5t45.5 -130.5q0 -108 -74 -187t-180 -79q-74 0 -121 47.5t-47 130.5
q0 119 73 192.5t174 73.5zM1174 1462l-3 -16l-274 -318h-322l3 13l208 321h388z" />
    <glyph glyph-name="acircumflex" unicode="&#xe2;" horiz-adv-x="1331" 
d="M938 1012l-37 -109q-62 131 -274 131q-165 0 -302 -84t-215.5 -228t-78.5 -316q0 -184 98.5 -299t282.5 -125q91 -5 187.5 26.5t168.5 100.5l-2 -109h348l178 1012h-354zM659 729q84 0 129.5 -47.5t45.5 -130.5q0 -108 -74 -187t-180 -79q-74 0 -121 47.5t-47 130.5
q0 119 73 192.5t174 73.5zM717 1464h233l254 -321l-2 -17h-323l-88 97l-121 -97h-324l2 17z" />
    <glyph glyph-name="atilde" unicode="&#xe3;" horiz-adv-x="1331" 
d="M901 903l37 109h354l-178 -1012h-348l2 109q-72 -69 -168.5 -100.5t-187.5 -26.5q-184 10 -282.5 125t-98.5 299q0 172 78.5 316t215.5 228t302 84q212 0 274 -131zM659 729q-101 0 -174 -73.5t-73 -192.5q0 -83 47 -130.5t121 -47.5q106 0 180 79t74 187
q0 83 -45.5 130.5t-129.5 47.5zM754 1174q-140 92 -211 -29l-176 135q36 70 92 117.5t117.5 65.5t124.5 11t114 -40q42 -26 76 -34t70.5 8.5t70.5 61.5l170 -133q-78 -145 -197 -190.5t-251 27.5z" />
    <glyph glyph-name="adieresis" unicode="&#xe4;" horiz-adv-x="1331" 
d="M375 1274q0 93 68.5 148t154.5 55q69 0 117.5 -40.5t48.5 -109.5q0 -90 -70 -143.5t-157 -53.5q-68 0 -115 39t-47 105zM899 1276q0 91 69 146t158 55q68 0 116 -40.5t48 -109.5q0 -89 -69.5 -143t-155.5 -54q-69 0 -117.5 39t-48.5 107zM938 1012l-37 -109
q-62 131 -274 131q-165 0 -302 -84t-215.5 -228t-78.5 -316q0 -184 98.5 -299t282.5 -125q91 -5 187.5 26.5t168.5 100.5l-2 -109h348l178 1012h-354zM659 729q84 0 129.5 -47.5t45.5 -130.5q0 -108 -74 -187t-180 -79q-74 0 -121 47.5t-47 130.5q0 119 73 192.5t174 73.5z
" />
    <glyph glyph-name="aring" unicode="&#xe5;" horiz-adv-x="1331" 
d="M901 903l37 109h354l-178 -1012h-348l2 109q-72 -69 -168.5 -100.5t-187.5 -26.5q-184 10 -282.5 125t-98.5 299q0 172 78.5 316t215.5 228t302 84q212 0 274 -131zM659 729q-101 0 -174 -73.5t-73 -192.5q0 -83 47 -130.5t121 -47.5q106 0 180 79t74 187
q0 83 -45.5 130.5t-129.5 47.5zM862 1614q164 0 231 -99q55 -80 21 -184q-34 -105 -139 -166q-90 -53 -209 -53q-162 0 -228 99q-53 81 -19 185q35 106 140 167q88 51 203 51zM831 1434q-63 0 -90 -46q-23 -39 1 -69q19 -25 63 -25q61 0 88 46q22 40 -2 70q-19 24 -60 24z
" />
    <glyph glyph-name="ae" unicode="&#xe6;" horiz-adv-x="1941" 
d="M672 729q-101 0 -174.5 -73.5t-73.5 -192.5q0 -83 46.5 -130.5t121.5 -47.5q109 0 182.5 72.5t73.5 187.5q0 88 -45.5 136t-130.5 48zM1184 641h372q9 76 -73 108t-178 1.5t-121 -109.5zM1831 399h-692q8 -62 73 -95.5t136 -33.5q150 0 274 82l147 -207
q-102 -83 -229 -125.5t-260 -42.5q-191 0 -260 115l-23 -92h-231l2 109q-72 -69 -168.5 -100.5t-187.5 -26.5q-184 10 -282.5 125t-98.5 299q0 172 78.5 316t215.5 228t302 84q212 0 274 -131l37 109h238l-9 -84q146 105 322 102q151 -1 255.5 -75.5t135.5 -214.5t-49 -341z
" />
    <glyph glyph-name="ccedilla" unicode="&#xe7;" horiz-adv-x="1067" 
d="M797 377l176 -225q-198 -152 -400 -170l-32 -78q65 -7 108 -33t60 -64t13.5 -84t-28.5 -94q-43 -83 -133.5 -131t-184.5 -52.5t-180.5 28.5t-125.5 98l153 125q25 -28 70.5 -43.5t90.5 -7t62 46.5q15 33 -9.5 57.5t-68 27t-92.5 -17.5l-34 31l100 209q-141 36 -225 139
t-84 269q0 125 39.5 230.5t105 177t153 122t182 73.5t192.5 23q112 0 208.5 -40t159.5 -117l-237 -218q-59 74 -162 74q-118 0 -192 -79t-74 -185q0 -76 48 -126t138 -50q113 0 203 84z" />
    <glyph glyph-name="egrave" unicode="&#xe8;" horiz-adv-x="1210" 
d="M449 641h366q9 76 -71.5 108t-175 1.5t-119.5 -109.5zM698 1036q181 0 301 -76.5t154 -218t-43 -342.5h-707q7 -62 69.5 -95.5t133.5 -33.5q151 0 275 82l147 -207q-102 -83 -229 -125.5t-260 -42.5q-109 0 -200 26t-160.5 78t-108.5 136t-39 193q0 125 40 230.5
t106.5 177t153.5 122t180 73.5t187 23zM412 1448l2 16h385l96 -319l-2 -12h-320z" />
    <glyph glyph-name="eacute" unicode="&#xe9;" horiz-adv-x="1210" 
d="M449 641h366q9 76 -71.5 108t-175 1.5t-119.5 -109.5zM698 1036q181 0 301 -76.5t154 -218t-43 -342.5h-707q7 -62 69.5 -95.5t133.5 -33.5q151 0 275 82l147 -207q-102 -83 -229 -125.5t-260 -42.5q-109 0 -200 26t-160.5 78t-108.5 136t-39 193q0 125 40 230.5
t106.5 177t153.5 122t180 73.5t187 23zM1139 1462l-2 -16l-273 -316h-319l2 13l209 319h383z" />
    <glyph glyph-name="ecircumflex" unicode="&#xea;" horiz-adv-x="1210" 
d="M449 641h366q9 76 -71.5 108t-175 1.5t-119.5 -109.5zM698 1036q181 0 301 -76.5t154 -218t-43 -342.5h-707q7 -62 69.5 -95.5t133.5 -33.5q151 0 275 82l147 -207q-102 -83 -229 -125.5t-260 -42.5q-109 0 -200 26t-160.5 78t-108.5 136t-39 193q0 125 40 230.5
t106.5 177t153.5 122t180 73.5t187 23zM659 1456h234l254 -321l-2 -17h-324l-88 96l-121 -96h-323l2 17z" />
    <glyph glyph-name="edieresis" unicode="&#xeb;" horiz-adv-x="1210" 
d="M322 1276q0 87 65 139.5t145 52.5q66 0 112 -38.5t46 -104.5q0 -84 -66 -135t-149 -51q-64 0 -108.5 36.5t-44.5 100.5zM821 1276q0 87 65.5 139.5t149.5 52.5q64 0 110 -38.5t46 -104.5q0 -84 -67 -135t-146 -51q-66 0 -112 37t-46 100zM449 641h366q9 76 -71.5 108
t-175 1.5t-119.5 -109.5zM698 1036q181 0 301 -76.5t154 -218t-43 -342.5h-707q7 -62 69.5 -95.5t133.5 -33.5q151 0 275 82l147 -207q-102 -83 -229 -125.5t-260 -42.5q-109 0 -200 26t-160.5 78t-108.5 136t-39 193q0 125 40 230.5t106.5 177t153.5 122t180 73.5t187 23z
" />
    <glyph glyph-name="igrave" unicode="&#xec;" horiz-adv-x="600" 
d="M147 1430l3 16h350l51 -322l-2 -12h-305zM383 0h-377l178 1012h377z" />
    <glyph glyph-name="iacute" unicode="&#xed;" horiz-adv-x="600" 
d="M731 1446l-4 -16l-207 -318h-315l2 12l174 322h350zM6 0h377l178 1012h-377z" />
    <glyph glyph-name="icircumflex" unicode="&#xee;" horiz-adv-x="600" 
d="M338 1452h207l217 -326l-2 -16h-291l-72 92l-108 -92h-287l2 16zM6 0h377l178 1012h-377z" />
    <glyph glyph-name="idieresis" unicode="&#xef;" horiz-adv-x="600" 
d="M4 1239q0 96 65.5 153.5t149.5 57.5q64 0 110 -41.5t46 -112.5q0 -92 -68 -147t-151 -55q-65 0 -108.5 38.5t-43.5 106.5zM455 1241q0 94 67.5 151.5t151.5 57.5q63 0 108 -41t45 -111q0 -93 -67 -148.5t-150 -55.5q-65 0 -110 39.5t-45 107.5zM6 0h377l178 1012h-377z
" />
    <glyph glyph-name="eth" unicode="&#xf0;" horiz-adv-x="1200" 
d="M735 1343l131 130l183 -162l-107 -103q74 -67 121 -153t64 -178.5t15.5 -182.5t-20.5 -182q-28 -118 -79 -212t-127 -166t-185 -111t-242 -39q-115 0 -205 35t-144.5 95.5t-82.5 136t-28 161.5q0 103 36.5 201.5t101 173.5t152.5 128t190.5 65.5t215.5 -13.5
q-60 79 -173.5 125.5t-227.5 58.5l104 268q188 -23 307 -76zM543 289q106 0 170 93q56 79 47 170q-8 92 -82 124q-29 12 -66 12q-102 0 -165 -93q-55 -80 -47 -171q8 -92 80 -123q27 -12 63 -12z" />
    <glyph glyph-name="ntilde" unicode="&#xf1;" 
d="M1069 0h-377l99 559q16 87 -17.5 127.5t-93.5 40.5q-73 0 -133 -50.5t-76 -144.5l-94 -532h-373l178 1012h334l-2 -111q72 70 163.5 103.5t178.5 31.5q55 -1 101.5 -11t88 -33t69.5 -59.5t46.5 -89t19 -122.5t-13.5 -160zM727 1198q-132 91 -197 -29l-165 134
q33 69 86 115.5t110 64.5t116 11t107 -40q40 -26 72 -33.5t66.5 9t64.5 61.5l160 -131q-71 -143 -184.5 -188.5t-235.5 26.5z" />
    <glyph glyph-name="ograve" unicode="&#xf2;" horiz-adv-x="1271" 
d="M713 1034q102 0 189.5 -26.5t156 -79t108 -138t39.5 -194.5q0 -125 -40.5 -229.5t-107.5 -175.5t-156 -120.5t-184.5 -72.5t-193.5 -23q-100 0 -187 26.5t-156.5 78.5t-109.5 138t-40 196q0 126 39.5 230.5t105.5 175.5t154.5 120t184.5 71.5t198 22.5zM580 285
q106 0 178.5 75.5t72.5 180.5q0 79 -45.5 131.5t-128.5 52.5q-110 0 -180.5 -77.5t-70.5 -180.5q0 -78 45.5 -130t128.5 -52zM424 1452l2 14h397l101 -313l-2 -12h-330z" />
    <glyph glyph-name="oacute" unicode="&#xf3;" horiz-adv-x="1271" 
d="M713 1034q-102 0 -198 -22.5t-184.5 -71.5t-154.5 -120t-105.5 -175.5t-39.5 -230.5q0 -110 40 -196t109.5 -138t156.5 -78.5t187 -26.5q98 0 193.5 23t184.5 72.5t156 120.5t107.5 175.5t40.5 229.5q0 109 -39.5 194.5t-108 138t-156 79t-189.5 26.5zM580 285
q-83 0 -128.5 52t-45.5 130q0 103 70.5 180.5t180.5 77.5q83 0 128.5 -52.5t45.5 -131.5q0 -105 -72.5 -180.5t-178.5 -75.5zM1135 1460l-2 -16l-275 -314h-321l2 13l209 317h387z" />
    <glyph glyph-name="ocircumflex" unicode="&#xf4;" horiz-adv-x="1271" 
d="M713 1034q-102 0 -198 -22.5t-184.5 -71.5t-154.5 -120t-105.5 -175.5t-39.5 -230.5q0 -110 40 -196t109.5 -138t156.5 -78.5t187 -26.5q98 0 193.5 23t184.5 72.5t156 120.5t107.5 175.5t40.5 229.5q0 109 -39.5 194.5t-108 138t-156 79t-189.5 26.5zM580 285
q-83 0 -128.5 52t-45.5 130q0 103 70.5 180.5t180.5 77.5q83 0 128.5 -52.5t45.5 -131.5q0 -105 -72.5 -180.5t-178.5 -75.5zM670 1454h233l254 -321l-2 -17h-324l-88 96l-120 -96h-324l2 17z" />
    <glyph glyph-name="otilde" unicode="&#xf5;" horiz-adv-x="1271" 
d="M713 1034q102 0 189.5 -26.5t156 -79t108 -138t39.5 -194.5q0 -125 -40.5 -229.5t-107.5 -175.5t-156 -120.5t-184.5 -72.5t-193.5 -23q-100 0 -187 26.5t-156.5 78.5t-109.5 138t-40 196q0 126 39.5 230.5t105.5 175.5t154.5 120t184.5 71.5t198 22.5zM580 285
q106 0 178.5 75.5t72.5 180.5q0 79 -45.5 131.5t-128.5 52.5q-110 0 -180.5 -77.5t-70.5 -180.5q0 -78 45.5 -130t128.5 -52zM715 1165q-139 91 -209 -28l-174 133q36 71 91.5 119t116 66t122.5 11t112 -41q42 -26 75.5 -33.5t69 9t68.5 61.5l166 -133q-75 -145 -192 -191
t-246 27z" />
    <glyph glyph-name="odieresis" unicode="&#xf6;" 
d="M322 1280q0 92 69 147.5t156 55.5q68 0 117 -40.5t49 -109.5q0 -89 -70.5 -142.5t-157.5 -53.5q-68 0 -115.5 38.5t-47.5 104.5zM813 1282q0 92 69.5 146.5t159.5 54.5q67 0 115.5 -40.5t48.5 -109.5q0 -89 -69.5 -142.5t-155.5 -53.5q-70 0 -119 39t-49 106zM715 1040
q-102 0 -198 -22.5t-184.5 -71.5t-154.5 -120t-105.5 -175.5t-39.5 -230.5q0 -110 40 -195.5t109.5 -137.5t156.5 -78.5t187 -26.5q98 0 193.5 22.5t184.5 72.5t156 120.5t107.5 175t40.5 229.5q0 109 -39.5 194.5t-108 138t-156 79t-189.5 26.5zM582 291q-83 0 -128.5 52
t-45.5 130q0 103 70.5 180.5t180.5 77.5q83 0 129 -52.5t46 -131.5q0 -105 -73 -180.5t-179 -75.5z" />
    <glyph glyph-name="divide" unicode="&#xf7;" horiz-adv-x="1110" 
d="M117 817l-54 -297h953l53 297h-952zM301 244q0 99 71.5 155t164.5 56q72 0 122 -40.5t50 -113.5q0 -65 -36 -113.5t-88.5 -71t-111.5 -22.5q-73 0 -122.5 40t-49.5 110zM442 1038q0 99 70.5 154t165.5 55q72 0 122 -39t50 -112q0 -66 -36.5 -115t-89 -71.5t-110.5 -22.5
q-73 0 -122.5 39.5t-49.5 111.5z" />
    <glyph glyph-name="oslash" unicode="&#xf8;" horiz-adv-x="1275" 
d="M582 285q112 0 177.5 76t65.5 186q0 79 -42.5 128.5t-123.5 49.5q-112 0 -177.5 -77t-65.5 -187q0 -79 42.5 -127.5t123.5 -48.5zM715 1034q55 0 123 -10l86 113h348l-176 -226q112 -106 112 -309q0 -131 -40.5 -238t-107.5 -178t-156.5 -119.5t-184 -70t-193.5 -21.5
q-26 0 -114 9l-82 -107h-350l172 219q-56 50 -87.5 131.5t-31.5 182.5q0 129 39 235t105 177t154.5 119.5t184.5 70.5t199 22z" />
    <glyph glyph-name="ugrave" unicode="&#xf9;" 
d="M168 1012h377l-99 -559q-16 -87 18.5 -127.5t94.5 -40.5q74 0 131.5 47t75.5 141l94 539h373l-178 -1012h-334l4 111q-73 -71 -165 -104.5t-179 -31.5q-67 1 -120.5 16t-99 49t-70.5 88.5t-33.5 135t12.5 187.5zM422 1436l2 16h395l101 -317l-2 -11h-330z" />
    <glyph glyph-name="uacute" unicode="&#xfa;" 
d="M545 1012h-377l-98 -561q-21 -107 -12.5 -187.5t33.5 -135t70.5 -88.5t99 -49t120.5 -16q87 -2 179 31.5t165 104.5l-4 -111h334l178 1012h-373l-94 -539q-18 -94 -75.5 -141t-131.5 -47q-60 0 -94.5 40.5t-18.5 127.5zM1167 1460l-2 -16l-282 -318h-332l2 13l217 321
h397z" />
    <glyph glyph-name="ucircumflex" unicode="&#xfb;" 
d="M545 1012h-377l-98 -561q-21 -107 -12.5 -187.5t33.5 -135t70.5 -88.5t99 -49t120.5 -16q87 -2 179 31.5t165 104.5l-4 -111h334l178 1012h-373l-94 -539q-18 -94 -75.5 -141t-131.5 -47q-60 0 -94.5 40.5t-18.5 127.5zM674 1460h239l258 -307l-2 -16h-329l-90 92
l-123 -92h-332l2 16z" />
    <glyph glyph-name="udieresis" unicode="&#xfc;" 
d="M545 1012h-377l-98 -561q-21 -107 -12.5 -187.5t33.5 -135t70.5 -88.5t99 -49t120.5 -16q87 -2 179 31.5t165 104.5l-4 -111h334l178 1012h-373l-94 -539q-18 -94 -75.5 -141t-131.5 -47q-60 0 -94.5 40.5t-18.5 127.5zM272 1262q0 90 68 143t154 53q67 0 114 -39
t47 -106q0 -85 -69 -137t-154 -52q-67 0 -113.5 37t-46.5 101zM856 1264q0 89 68.5 141.5t156.5 52.5q66 0 113 -39t47 -106q0 -85 -69 -137t-152 -52q-69 0 -116.5 37.5t-47.5 102.5z" />
    <glyph glyph-name="yacute" unicode="&#xfd;" horiz-adv-x="1271" 
d="M453 512l88 500h-373l-90 -506q-14 -89 -13 -166t25.5 -140t68 -108t115 -69.5t166.5 -24.5q89 0 153 28.5t122 100.5l-25 -137q-16 -93 -60.5 -142t-129.5 -49q-69 0 -110.5 26.5t-37.5 96.5h-354q-28 -212 91 -319t353 -107q239 0 403 123t208 375l180 1018h-377
l-90 -506q-7 -39 -19.5 -73t-34 -68t-57 -54t-80.5 -20q-161 0 -122 221zM1149 1456l-2 -16l-281 -326h-329l2 12l215 330h395z" />
    <glyph glyph-name="thorn" unicode="&#xfe;" horiz-adv-x="1314" 
d="M643 301q91 0 159 67.5t68 172.5q0 76 -43.5 121t-111.5 45q-83 0 -153 -71.5t-70 -162.5q0 -72 43 -122t108 -50zM309 -397h-375l320 1806h375l-86 -485q135 108 329 108q92 0 165.5 -34.5t119 -93.5t69 -135t23.5 -163q0 -90 -23.5 -179t-72 -169t-116 -141.5t-163 -98
t-206.5 -36.5q-75 0 -150 26t-123 78z" />
    <glyph glyph-name="ydieresis" unicode="&#xff;" horiz-adv-x="1271" 
d="M453 512l88 500h-373l-90 -506q-14 -89 -13 -166t25.5 -140t68 -108t115 -69.5t166.5 -24.5q89 0 153 28.5t122 100.5l-25 -137q-16 -93 -60.5 -142t-129.5 -49q-69 0 -110.5 26.5t-37.5 96.5h-354q-28 -212 91 -319t353 -107q239 0 403 123t208 375l180 1018h-377
l-90 -506q-7 -39 -19.5 -73t-34 -68t-57 -54t-80.5 -20q-161 0 -122 221zM256 1255q0 93 68.5 148t156.5 55q68 0 117 -40t49 -109q0 -90 -70 -143.5t-157 -53.5q-69 0 -116.5 38.5t-47.5 104.5zM850 1257q0 92 69.5 146.5t159.5 54.5q67 0 115.5 -40t48.5 -109
q0 -89 -70.5 -143t-154.5 -54q-71 0 -119.5 38.5t-48.5 106.5z" />
    <glyph glyph-name="Amacron" unicode="&#x100;" horiz-adv-x="1636" 
d="M1141 0l-54 236h-641l-135 -236h-442l895 1434h410l389 -1434h-422zM1012 575l-103 447l-264 -447h367zM625 1524l51 286h717l-52 -286h-716z" />
    <glyph glyph-name="amacron" unicode="&#x101;" horiz-adv-x="1331" 
d="M901 903l37 109h354l-178 -1012h-348l2 109q-72 -69 -168.5 -100.5t-187.5 -26.5q-184 10 -282.5 125t-98.5 299q0 172 78.5 316t215.5 228t302 84q212 0 274 -131zM659 729q-101 0 -174 -73.5t-73 -192.5q0 -83 47 -130.5t121 -47.5q106 0 180 79t74 187
q0 83 -45.5 130.5t-129.5 47.5zM442 1163l50 285h686l-50 -285h-686z" />
    <glyph glyph-name="Abreve" unicode="&#x102;" horiz-adv-x="1636" 
d="M1141 0l-54 236h-641l-135 -236h-442l895 1434h410l389 -1434h-422zM1012 575l-103 447l-264 -447h367zM690 1851h287q-5 -27 1.5 -45.5t21 -26.5t26.5 -11t23 -3q18 0 36.5 5t41 25.5t28.5 55.5h287q-26 -154 -146.5 -241.5t-294.5 -87.5q-172 0 -259 87.5t-52 241.5z
" />
    <glyph glyph-name="abreve" unicode="&#x103;" horiz-adv-x="1331" 
d="M901 903l37 109h354l-178 -1012h-348l2 109q-72 -69 -168.5 -100.5t-187.5 -26.5q-184 10 -282.5 125t-98.5 299q0 172 78.5 316t215.5 228t302 84q212 0 274 -131zM659 729q-101 0 -174 -73.5t-73 -192.5q0 -83 47 -130.5t121 -47.5q106 0 180 79t74 187
q0 83 -45.5 130.5t-129.5 47.5zM496 1462h280q-5 -26 1.5 -44t21 -25.5t26 -10t23.5 -2.5t25.5 2.5t31 10t31 25.5t18.5 44h283q-26 -148 -145 -233.5t-289 -85.5t-256 85.5t-51 233.5z" />
    <glyph glyph-name="Aogonek" unicode="&#x104;" horiz-adv-x="1636" 
d="M1108 100l-33 136h-641l-135 -236h-430l895 1434h410l389 -1434q-86 10 -146.5 5.5t-99.5 -14.5t-60 -28t-27.5 -35.5t-2.5 -36.5q6 -28 42 -36.5t74.5 -2.5t65.5 17l111 -182q-57 -44 -137 -69t-161 -24.5t-151.5 21.5t-116 73t-47.5 126q-3 97 52 173.5t149 112.5z
M999 575l-102 457l-264 -457h366z" />
    <glyph glyph-name="aogonek" unicode="&#x105;" horiz-adv-x="1331" 
d="M901 903l37 109h354l-192 -1092q-24 7 -58 7.5t-68 -6t-56.5 -28t-20.5 -53.5q2 -24 35.5 -31t70.5 -1t60 16l86 -158q-65 -45 -154 -63.5t-169 -8.5t-136.5 57t-58.5 124q-3 80 39.5 142t117.5 93l-10 107q-70 -77 -170 -108.5t-196 -26.5q-184 10 -282.5 125t-98.5 299
q0 172 78.5 316t215.5 228t302 84q212 0 274 -131zM659 729q-101 0 -174 -73.5t-73 -192.5q0 -83 47 -130.5t121 -47.5q106 0 180 79t74 187q0 83 -45.5 130.5t-129.5 47.5z" />
    <glyph glyph-name="Cacute" unicode="&#x106;" horiz-adv-x="1447" 
d="M1354 186l-191 267q-85 -73 -183.5 -109.5t-178.5 -36.5q-86 0 -151 28t-101 76t-53 104t-17 120t17.5 129.5t55.5 129t91.5 113t131 79.5t167.5 30q175 0 285 -125l293 246q-196 229 -516 229q-147 0 -278.5 -36.5t-232 -100.5t-181.5 -150t-133 -186t-79.5 -206.5
t-27.5 -213.5q0 -101 22.5 -189t73.5 -166.5t127 -134t189.5 -88t254.5 -32.5q350 0 615 223zM1384 1882l-2 -16l-266 -310h-313l2 13l205 313h374z" />
    <glyph glyph-name="cacute" unicode="&#x107;" horiz-adv-x="1064" 
d="M971 152l-176 225q-90 -84 -203 -84q-90 0 -138 50t-48 126q0 106 74 185t192 79q103 0 162 -74l237 218q-63 77 -160 117t-209 40q-98 0 -192.5 -23t-181.5 -73.5t-153 -122t-105 -177t-39 -230.5q0 -111 39.5 -195t108.5 -134t155.5 -74.5t187.5 -24.5q230 0 449 172z
M1063 1434l-2 -15l-254 -295h-299l2 11l195 299h358z" />
    <glyph glyph-name="Ccircumflex" unicode="&#x108;" horiz-adv-x="1447" 
d="M1354 186l-191 267q-85 -73 -183.5 -109.5t-178.5 -36.5q-86 0 -151 28t-101 76t-53 104t-17 120t17.5 129.5t55.5 129t91.5 113t131 79.5t167.5 30q175 0 285 -125l293 246q-196 229 -516 229q-147 0 -278.5 -36.5t-232 -100.5t-181.5 -150t-133 -186t-79.5 -206.5
t-27.5 -213.5q0 -101 22.5 -189t73.5 -166.5t127 -134t189.5 -88t254.5 -32.5q350 0 615 223zM946 1925h234l254 -321l-2 -17h-324l-88 96l-121 -96h-324l3 17z" />
    <glyph glyph-name="ccircumflex" unicode="&#x109;" horiz-adv-x="1064" 
d="M971 152l-176 225q-90 -84 -203 -84q-90 0 -138 50t-48 126q0 106 74 185t192 79q103 0 162 -74l237 218q-63 77 -160 117t-209 40q-98 0 -192.5 -23t-181.5 -73.5t-153 -122t-105 -177t-39 -230.5q0 -111 39.5 -195t108.5 -134t155.5 -74.5t187.5 -24.5q230 0 449 172z
M627 1440h217l235 -299l-2 -15h-301l-82 88l-110 -88h-299l2 15z" />
    <glyph glyph-name="Cdotaccent" unicode="&#x10a;" horiz-adv-x="1447" 
d="M1354 186l-191 267q-85 -73 -183.5 -109.5t-178.5 -36.5q-86 0 -151 28t-101 76t-53 104t-17 120t17.5 129.5t55.5 129t91.5 113t131 79.5t167.5 30q175 0 285 -125l293 246q-196 229 -516 229q-147 0 -278.5 -36.5t-232 -100.5t-181.5 -150t-133 -186t-79.5 -206.5
t-27.5 -213.5q0 -101 22.5 -189t73.5 -166.5t127 -134t189.5 -88t254.5 -32.5q350 0 615 223zM811 1731q0 91 72.5 143.5t165.5 52.5q72 0 123 -38.5t51 -106.5q0 -89 -73.5 -142t-164.5 -53q-73 0 -123.5 38.5t-50.5 105.5z" />
    <glyph glyph-name="cdotaccent" unicode="&#x10b;" horiz-adv-x="1064" 
d="M971 152l-176 225q-90 -84 -203 -84q-90 0 -138 50t-48 126q0 106 74 185t192 79q103 0 162 -74l237 218q-63 77 -160 117t-209 40q-98 0 -192.5 -23t-181.5 -73.5t-153 -122t-105 -177t-39 -230.5q0 -111 39.5 -195t108.5 -134t155.5 -74.5t187.5 -24.5q230 0 449 172z
M532 1282q0 86 66 136t150 50q65 0 111 -36.5t46 -100.5q0 -85 -66.5 -135.5t-148.5 -50.5q-66 0 -112 37t-46 100z" />
    <glyph glyph-name="Ccaron" unicode="&#x10c;" horiz-adv-x="1447" 
d="M1354 186l-191 267q-85 -73 -183.5 -109.5t-178.5 -36.5q-86 0 -151 28t-101 76t-53 104t-17 120t17.5 129.5t55.5 129t91.5 113t131 79.5t167.5 30q175 0 285 -125l293 246q-196 229 -516 229q-147 0 -278.5 -36.5t-232 -100.5t-181.5 -150t-133 -186t-79.5 -206.5
t-27.5 -213.5q0 -101 22.5 -189t73.5 -166.5t127 -134t189.5 -88t254.5 -32.5q350 0 615 223zM1124 1583h-241l-262 309l2 15h335l91 -92l125 92h335l-2 -15z" />
    <glyph glyph-name="ccaron" unicode="&#x10d;" horiz-adv-x="1064" 
d="M971 152l-176 225q-90 -84 -203 -84q-90 0 -138 50t-48 126q0 106 74 185t192 79q103 0 162 -74l237 218q-63 77 -160 117t-209 40q-98 0 -192.5 -23t-181.5 -73.5t-153 -122t-105 -177t-39 -230.5q0 -111 39.5 -195t108.5 -134t155.5 -74.5t187.5 -24.5q230 0 449 172z
M817 1130h-219l-236 287l3 15h301l82 -86l112 86h303l-2 -15z" />
    <glyph glyph-name="Dcaron" unicode="&#x10e;" horiz-adv-x="1587" 
d="M907 1434h-614l-252 -1434h614q173 0 320 47t251 127.5t177 189t108 232.5t35 256q0 126 -38.5 230.5t-115 184t-200.5 123.5t-285 44zM502 342l133 754h213q148 0 220.5 -81t72.5 -210q0 -64 -14 -127t-46.5 -124.5t-80.5 -108t-121.5 -75t-163.5 -28.5h-213zM1018 1565
h-254l-275 297l3 14h350l96 -88l129 88h352l-2 -14z" />
    <glyph glyph-name="dcaron" unicode="&#x10f;" horiz-adv-x="1488" 
d="M889 926l90 508h377l-252 -1434h-336l2 109q-72 -69 -168.5 -100.5t-187.5 -26.5q-186 10 -284.5 118t-98.5 295q0 136 46 255t126 203t190.5 132.5t235.5 48.5q192 0 260 -108zM659 729q-101 0 -173 -73.5t-72 -192.5q0 -83 46.5 -130.5t121.5 -47.5q104 0 174.5 77
t70.5 179q0 80 -43 134t-125 54zM1329 983l170 453h311l-239 -453h-242z" />
    <glyph glyph-name="Dcroat" unicode="&#x110;" horiz-adv-x="1574" 
d="M33 584l49 282h121l100 568h615q129 0 233.5 -33t174.5 -90t118 -134.5t69 -164t21 -181.5q0 -122 -34 -240t-105.5 -225t-172.5 -188.5t-244.5 -129.5t-311.5 -48h-615l103 584h-121zM549 584l-43 -242h219q81 0 149.5 26.5t114.5 70.5t78 102t46.5 120t14.5 125
q0 48 -8.5 91t-29 83t-50.5 69t-77 46t-105 17h-219l-41 -226h199l-49 -282h-199z" />
    <glyph glyph-name="dcroat" unicode="&#x111;" horiz-adv-x="1320" 
d="M750 1112l41 225h172l16 97h377l-17 -97h127l-41 -225h-127l-194 -1112h-336l2 109q-72 -69 -168.5 -100.5t-187.5 -26.5q-186 10 -284.5 118t-98.5 295q0 136 46 255t126 203t190.5 132.5t235.5 48.5q192 0 260 -108l33 186h-172zM659 729q-101 0 -173 -73.5t-72 -192.5
q0 -83 46.5 -130.5t121.5 -47.5q104 0 174.5 77t70.5 179q0 80 -43 134t-125 54z" />
    <glyph glyph-name="Emacron" unicode="&#x112;" horiz-adv-x="1363" 
d="M1247 342l-59 -342h-1147l252 1434h1091l-59 -340h-692l-35 -205h651l-59 -330h-651l-39 -217h747zM561 1550l49 275h686l-49 -275h-686z" />
    <glyph glyph-name="emacron" unicode="&#x113;" horiz-adv-x="1210" 
d="M449 641h366q9 76 -71.5 108t-175 1.5t-119.5 -109.5zM698 1036q181 0 301 -76.5t154 -218t-43 -342.5h-707q7 -62 69.5 -95.5t133.5 -33.5q151 0 275 82l147 -207q-102 -83 -229 -125.5t-260 -42.5q-109 0 -200 26t-160.5 78t-108.5 136t-39 193q0 125 40 230.5
t106.5 177t153.5 122t180 73.5t187 23zM410 1155l47 264h639l-47 -264h-639z" />
    <glyph glyph-name="Ebreve" unicode="&#x114;" horiz-adv-x="1363" 
d="M1247 342l-59 -342h-1147l252 1434h1091l-59 -340h-692l-35 -205h651l-59 -330h-651l-39 -217h747zM608 1845h277q-5 -24 1 -41.5t20 -25t25.5 -10.5t22.5 -3q16 0 34 4.5t40.5 24t28.5 51.5h276q-24 -144 -141 -226.5t-283 -82.5q-167 0 -250.5 82.5t-50.5 226.5z" />
    <glyph glyph-name="ebreve" unicode="&#x115;" horiz-adv-x="1210" 
d="M449 641h366q9 76 -71.5 108t-175 1.5t-119.5 -109.5zM698 1036q181 0 301 -76.5t154 -218t-43 -342.5h-707q7 -62 69.5 -95.5t133.5 -33.5q151 0 275 82l147 -207q-102 -83 -229 -125.5t-260 -42.5q-109 0 -200 26t-160.5 78t-108.5 136t-39 193q0 125 40 230.5
t106.5 177t153.5 122t180 73.5t187 23zM424 1454h278q-5 -26 1.5 -44t20.5 -25.5t26 -10t24 -2.5q17 0 34.5 4t40.5 24t30 54h278q-24 -150 -142.5 -235.5t-287.5 -85.5t-253.5 85.5t-49.5 235.5z" />
    <glyph glyph-name="Edotaccent" unicode="&#x116;" horiz-adv-x="1363" 
d="M1188 0l59 342h-747l39 217h651l59 330h-651l35 205h692l59 340h-1091l-252 -1434h1147zM684 1714q0 63 39 111t95 70t118 22q77 0 131.5 -40t54.5 -110q0 -92 -77.5 -145t-174.5 -53q-78 0 -132 38.5t-54 106.5z" />
    <glyph glyph-name="edotaccent" unicode="&#x117;" horiz-adv-x="1210" 
d="M449 641h366q9 76 -71.5 108t-175 1.5t-119.5 -109.5zM698 1036q181 0 301 -76.5t154 -218t-43 -342.5h-707q7 -62 69.5 -95.5t133.5 -33.5q151 0 275 82l147 -207q-102 -83 -229 -125.5t-260 -42.5q-109 0 -200 26t-160.5 78t-108.5 136t-39 193q0 125 40 230.5
t106.5 177t153.5 122t180 73.5t187 23zM532 1282q0 94 74 148.5t168 54.5q74 0 126 -40.5t52 -111.5q0 -92 -74 -145t-167 -53q-75 0 -127 38.5t-52 108.5z" />
    <glyph glyph-name="Eogonek" unicode="&#x118;" horiz-adv-x="1378" 
d="M1247 342l-59 -342q-55 6 -99.5 2t-71 -15t-44.5 -26.5t-20.5 -32t1.5 -32.5q9 -23 44.5 -28t71 2.5t58.5 18.5l111 -172q-61 -45 -147 -74t-171.5 -36t-160.5 18.5t-109 83.5q-40 67 -5 156t120 135h-725l252 1434h1118l-59 -340h-719l-35 -205h678l-59 -330h-678
l-39 -217h747z" />
    <glyph glyph-name="eogonek" unicode="&#x119;" horiz-adv-x="1212" 
d="M698 1036q181 0 301 -76.5t154 -218t-43 -342.5h-707q7 -62 69.5 -95.5t133.5 -33.5q151 0 275 82l147 -207q-132 -106 -299 -145q-34 -11 -53.5 -32t-18.5 -48q3 -27 37.5 -38t80 -3t77.5 31l100 -164q-73 -74 -195.5 -100t-230 7.5t-139.5 117.5q-19 59 5.5 116.5
t84.5 92.5q-97 7 -177 36t-141 80.5t-94.5 131.5t-33.5 182q0 125 40 230.5t106.5 177t153.5 122t180 73.5t187 23zM449 641h366q9 76 -71.5 108t-175 1.5t-119.5 -109.5z" />
    <glyph glyph-name="Ecaron" unicode="&#x11a;" horiz-adv-x="1363" 
d="M1188 0l59 342h-747l39 217h651l59 330h-651l35 205h692l59 340h-1091l-252 -1434h1147zM1006 1544h-236l-256 293l2 16h326l90 -88l121 88h325l-2 -16z" />
    <glyph glyph-name="ecaron" unicode="&#x11b;" horiz-adv-x="1210" 
d="M449 641h366q9 76 -71.5 108t-175 1.5t-119.5 -109.5zM698 1036q181 0 301 -76.5t154 -218t-43 -342.5h-707q7 -62 69.5 -95.5t133.5 -33.5q151 0 275 82l147 -207q-102 -83 -229 -125.5t-260 -42.5q-109 0 -200 26t-160.5 78t-108.5 136t-39 193q0 125 40 230.5
t106.5 177t153.5 122t180 73.5t187 23zM813 1126h-233l-252 291l2 15h321l88 -89l121 89h324l-2 -15z" />
    <glyph glyph-name="Gcircumflex" unicode="&#x11c;" horiz-adv-x="1550" 
d="M1257 1016l271 227q-107 130 -234.5 181t-287.5 51q-148 0 -280.5 -36.5t-233.5 -100.5t-181.5 -149.5t-132.5 -185.5t-79 -207t-27 -214q0 -99 22 -187.5t72.5 -168.5t125.5 -138.5t188.5 -92.5t254.5 -34q213 0 395.5 74t270.5 207l112 637h-700l-55 -318h362l-33 -184
q-115 -74 -288 -74q-87 0 -154.5 29.5t-106.5 78.5t-57 107.5t-14 120.5q15 234 142 365t335 131q206 0 313 -119zM942 1901h242l262 -308l-2 -14h-336l-90 92l-125 -92h-336l2 14z" />
    <glyph glyph-name="gcircumflex" unicode="&#x11d;" horiz-adv-x="1331" 
d="M711 1477h252l280 -314l-2 -14h-348l-98 92l-129 -92h-351l2 14zM659 729q83 0 129 -48.5t46 -131.5q0 -105 -73.5 -181.5t-178.5 -76.5q-75 0 -122.5 47t-47.5 129q0 116 72.5 189t174.5 73zM352 -78h-375q-19 -142 38.5 -239t171 -142t274.5 -45q122 0 228.5 31.5
t194 92.5t148 159t82.5 225l178 1008h-354l-39 -109q-59 131 -272 131q-165 0 -302 -82.5t-215.5 -226.5t-78.5 -317q0 -180 99.5 -290t285.5 -120q98 -5 193.5 24t162.5 105l-22 -133q-15 -89 -79.5 -142t-156.5 -53q-72 0 -118.5 30.5t-43.5 92.5z" />
    <glyph glyph-name="Gbreve" unicode="&#x11e;" horiz-adv-x="1550" 
d="M1528 1243l-271 -227q-107 119 -313 119q-208 0 -335 -131t-142 -365q-4 -62 14 -120.5t57 -107.5t106.5 -78.5t154.5 -29.5q173 0 288 74l33 184h-362l55 318h700l-112 -637q-88 -133 -270.5 -207t-395.5 -74q-141 0 -254.5 34t-188.5 92.5t-125.5 138.5t-72.5 168.5
t-22 187.5q0 107 27 214t79 207t132.5 185.5t181.5 149.5t233.5 100.5t280.5 36.5q160 0 287.5 -51t234.5 -181zM686 1903h289q-5 -27 1.5 -45.5t21 -26.5t27 -11t24.5 -3q18 0 36.5 5t41.5 25.5t30 55.5h289q-26 -153 -148 -240.5t-297 -87.5t-262.5 87.5t-52.5 240.5z" />
    <glyph glyph-name="gbreve" unicode="&#x11f;" horiz-adv-x="1331" 
d="M659 729q-102 0 -174.5 -73t-72.5 -189q0 -82 47.5 -129t122.5 -47q105 0 178.5 76.5t73.5 181.5q0 83 -46 131.5t-129 48.5zM-23 -78h375q-3 -62 43.5 -92.5t118.5 -30.5q92 0 156.5 53t79.5 142l22 133q-67 -76 -162.5 -105t-193.5 -24q-186 10 -285.5 120t-99.5 290
q0 173 78.5 317t215.5 226.5t302 82.5q213 0 272 -131l39 109h354l-178 -1008q-22 -127 -82.5 -225t-148 -159t-194 -92.5t-228.5 -31.5q-161 0 -274.5 45t-171 142t-38.5 239zM483 1470h293q-5 -27 2 -45.5t21.5 -26.5t27 -11t23.5 -3q18 0 37 5t43 25.5t31 55.5h292
q-26 -153 -150 -241t-300 -88q-178 0 -267 88t-53 241z" />
    <glyph glyph-name="Gdotaccent" unicode="&#x120;" horiz-adv-x="1550" 
d="M1257 1016l271 227q-107 130 -234.5 181t-287.5 51q-148 0 -280.5 -36.5t-233.5 -100.5t-181.5 -149.5t-132.5 -185.5t-79 -207t-27 -214q0 -99 22 -187.5t72.5 -168.5t125.5 -138.5t188.5 -92.5t254.5 -34q213 0 395.5 74t270.5 207l112 637h-700l-55 -318h362l-33 -184
q-115 -74 -288 -74q-87 0 -154.5 29.5t-106.5 78.5t-57 107.5t-14 120.5q15 234 142 365t335 131q206 0 313 -119zM821 1737q0 98 76 154.5t174 56.5q77 0 130.5 -41.5t53.5 -114.5q0 -96 -76.5 -152.5t-172.5 -56.5q-78 0 -131.5 41t-53.5 113z" />
    <glyph glyph-name="gdotaccent" unicode="&#x121;" horiz-adv-x="1331" 
d="M659 729q83 0 129 -48.5t46 -131.5q0 -105 -73.5 -181.5t-178.5 -76.5q-75 0 -122.5 47t-47.5 129q0 116 72.5 189t174.5 73zM352 -78h-375q-19 -142 38.5 -239t171 -142t274.5 -45q122 0 228.5 31.5t194 92.5t148 159t82.5 225l178 1008h-354l-39 -109q-59 131 -272 131
q-165 0 -302 -82.5t-215.5 -226.5t-78.5 -317q0 -180 99.5 -290t285.5 -120q98 -5 193.5 24t162.5 105l-22 -133q-15 -89 -79.5 -142t-156.5 -53q-72 0 -118.5 30.5t-43.5 92.5zM588 1303q0 98 76 154t174 56q75 0 128.5 -41t53.5 -114q0 -96 -76.5 -152.5t-171.5 -56.5
q-77 0 -130.5 41t-53.5 113z" />
    <glyph glyph-name="Gcommaaccent" unicode="&#x122;" horiz-adv-x="1550" 
d="M1528 1243l-271 -227q-107 119 -313 119q-208 0 -335 -131t-142 -365q-4 -62 14 -120.5t57 -107.5t106.5 -78.5t154.5 -29.5q173 0 288 74l33 184h-362l55 318h700l-112 -637q-88 -133 -270.5 -207t-395.5 -74q-141 0 -254.5 34t-188.5 92.5t-125.5 138.5t-72.5 168.5
t-22 187.5q0 107 27 214t79 207t132.5 185.5t181.5 149.5t233.5 100.5t280.5 36.5q160 0 287.5 -51t234.5 -181zM891 -260q0 -54 -43.5 -140t-138.5 -225h-199l80 205q-88 16 -88 107q0 87 70 137.5t163 50.5q66 0 111 -36t45 -99z" />
    <glyph glyph-name="gcommaaccent" unicode="&#x123;" horiz-adv-x="1331" 
d="M586 1331q7 35 26.5 77.5t36 70t51 80.5t45.5 71h240l-67 -180q50 -15 69 -42.5t10 -72.5q-11 -54 -49 -92.5t-85.5 -56t-98.5 -17.5q-83 0 -138.5 44t-39.5 118zM659 729q83 0 129 -48.5t46 -131.5q0 -105 -73.5 -181.5t-178.5 -76.5q-75 0 -122.5 47t-47.5 129
q0 116 72.5 189t174.5 73zM352 -78h-375q-19 -142 38.5 -239t171 -142t274.5 -45q122 0 228.5 31.5t194 92.5t148 159t82.5 225l178 1008h-354l-39 -109q-59 131 -272 131q-165 0 -302 -82.5t-215.5 -226.5t-78.5 -317q0 -180 99.5 -290t285.5 -120q98 -5 193.5 24
t162.5 105l-22 -133q-15 -89 -79.5 -142t-156.5 -53q-72 0 -118.5 30.5t-43.5 92.5z" />
    <glyph glyph-name="Hcircumflex" unicode="&#x124;" horiz-adv-x="1615" 
d="M963 -2h401l252 1434h-402l-94 -545h-516l94 545h-405l-252 -1434h405l97 543h516zM920 1896h245l267 -319l-2 -16h-340l-93 94l-127 -94h-342l2 16z" />
    <glyph glyph-name="hcircumflex" unicode="&#x125;" horiz-adv-x="1257" 
d="M637 1434h-381l-252 -1434h379l94 535q16 83 71.5 128.5t117.5 45.5q131 0 110 -150l-98 -559h375l98 561q20 127 5.5 217t-62.5 147t-112 83t-144 26q-90 0 -158.5 -31t-134.5 -100zM729 1866h223l244 -312l-2 -14h-309l-86 92l-115 -92h-311l2 14z" />
    <glyph glyph-name="Hbar" unicode="&#x126;" horiz-adv-x="1634" 
d="M1372 -2h-401l94 532h-516l-94 -532h-406l182 1028h-120l39 231h120l31 175h406l-31 -175h516l31 175h401l-31 -175h127l-39 -231h-127zM608 874h516l29 152h-516z" />
    <glyph glyph-name="hbar" unicode="&#x127;" horiz-adv-x="1255" 
d="M86 1104l41 227h113l16 103h381l-16 -103h165l-41 -227h-165l-35 -201q66 69 134.5 100t158.5 31q80 0 144 -26t111.5 -83t62 -147t-4.5 -217l-98 -561h-375l98 559q21 150 -110 150q-62 0 -117.5 -45.5t-71.5 -128.5l-94 -535h-379l195 1104h-113z" />
    <glyph glyph-name="Itilde" unicode="&#x128;" horiz-adv-x="696" 
d="M444 0h-403l252 1434h403zM510 1602q-143 87 -213 -29l-180 133q36 69 93.5 116t119.5 65t125.5 11.5t115.5 -38.5q43 -27 77.5 -35t71.5 8t71 61l172 -131q-76 -143 -198 -188.5t-255 27.5z" />
    <glyph glyph-name="itilde" unicode="&#x129;" horiz-adv-x="600" 
d="M383 0h-377l178 1012h377zM393 1165q-113 88 -170 -28l-143 129q29 68 74.5 113.5t95 63t101 11t93.5 -38.5q34 -25 61.5 -32.5t56.5 8.5t56 59l138 -127q-62 -140 -159 -184t-204 26z" />
    <glyph glyph-name="Imacron" unicode="&#x12a;" horiz-adv-x="696" 
d="M444 0h-403l252 1434h403zM223 1579l43 295h617l-43 -295h-617z" />
    <glyph glyph-name="imacron" unicode="&#x12b;" horiz-adv-x="600" 
d="M383 0h-377l178 1012h377zM123 1153l39 274h538l-38 -274h-539z" />
    <glyph glyph-name="Ibreve" unicode="&#x12c;" horiz-adv-x="696" 
d="M444 0h-403l252 1434h403zM215 1890h274q-5 -28 1.5 -47.5t20 -28t25.5 -11.5t23 -3t24 3t30 11.5t30.5 28t18.5 47.5h274q-24 -162 -140 -255t-282 -93t-249 93t-50 255z" />
    <glyph glyph-name="ibreve" unicode="&#x12d;" horiz-adv-x="600" 
d="M383 0h-377l178 1012h377zM119 1436h241q-4 -27 1.5 -45t18 -25.5t22.5 -10.5t20 -3q9 0 20 3t26.5 10.5t27.5 26t16 44.5h242q-21 -153 -123.5 -240.5t-249.5 -87.5q-145 0 -218.5 88t-43.5 240z" />
    <glyph glyph-name="Iogonek" unicode="&#x12e;" horiz-adv-x="696" 
d="M248 -92q1 -20 20.5 -29.5t46 -9t52.5 5.5t43 12l96 -170q-58 -47 -146.5 -75t-174.5 -31t-155.5 33t-88.5 108q-17 65 12 137t88 117l252 1428h403l-252 -1434h-82q-51 -3 -84 -29t-30 -63z" />
    <glyph glyph-name="iogonek" unicode="&#x12f;" horiz-adv-x="604" 
d="M205 1243q0 101 76.5 160t173.5 59q75 0 127.5 -43t52.5 -119q0 -101 -75 -159t-171 -58q-76 0 -130 42.5t-54 117.5zM383 -31l2 31l176 995h-379l-172 -975q-60 -43 -87 -93t-27 -120q0 -82 60 -130.5t144.5 -56.5t175.5 14t152 69l-84 168q-43 -28 -108 -26t-68 40
q-4 41 35.5 64.5t89 24.5t90.5 -5z" />
    <glyph glyph-name="Idotaccent" unicode="&#x130;" horiz-adv-x="696" 
d="M41 0h403l252 1434h-403zM313 1694q0 96 79.5 151.5t182.5 55.5q79 0 136 -40.5t57 -113.5q0 -95 -80.5 -150t-181.5 -55q-80 0 -136.5 40.5t-56.5 111.5z" />
    <glyph glyph-name="dotlessi" unicode="&#x131;" horiz-adv-x="600" 
d="M383 0h-377l178 1012h377z" />
    <glyph glyph-name="IJ" unicode="&#x132;" horiz-adv-x="2185" 
d="M444 0h-403l252 1434h403zM723 618h395q-25 -152 35.5 -224t175.5 -72q129 0 213.5 77t110.5 222l84 473h-381l59 340h787l-144 -816q-20 -116 -59 -212.5t-103 -178.5t-150 -138.5t-204 -88t-262 -31.5q-320 0 -467.5 160.5t-89.5 488.5z" />
    <glyph glyph-name="ij" unicode="&#x133;" horiz-adv-x="1202" 
d="M203 1243q0 101 76.5 160t173.5 59q75 0 127.5 -43t52.5 -119q0 -101 -76 -159t-172 -58q-76 0 -129 42.5t-53 117.5zM4 0h379l176 995h-379zM805 1243q0 101 77 160t173 59q75 0 128.5 -43t53.5 -119q0 -101 -76 -159t-172 -58q-76 0 -130 42.5t-54 117.5zM399 -147
l-118 -265q110 -59 223 -64.5t208.5 39t166 145.5t96.5 245l184 1042h-377l-184 -1042q-17 -93 -71.5 -119.5t-127.5 19.5z" />
    <glyph glyph-name="Jcircumflex" unicode="&#x134;" horiz-adv-x="1488" 
d="M422 618h-395q-58 -328 89.5 -488.5t467.5 -160.5q144 0 262 31.5t204 88t150 138.5t103 178.5t59 212.5l143 816h-786l-60 -340h381l-84 -473q-26 -145 -110 -222t-213 -77q-115 0 -175.5 72t-35.5 224zM1006 1901h243l264 -336l-2 -19h-337l-91 101l-127 -101h-335
l2 19z" />
    <glyph glyph-name="jcircumflex" unicode="&#x135;" horiz-adv-x="600" 
d="M336 1481h209l225 -353l-2 -18h-289l-78 107l-106 -107h-289l2 18zM-203 -147l-119 -265q110 -59 223 -64.5t208.5 39t166.5 145.5t97 245l184 1042h-377l-184 -1042q-17 -93 -71.5 -119.5t-127.5 19.5z" />
    <glyph glyph-name="Kcommaaccent" unicode="&#x136;" horiz-adv-x="1439" 
d="M1561 1434l-5 -25l-700 -698q32 -44 222.5 -298t283.5 -388l-4 -25h-492l-182 258l-145 252l-93 -510h-405l252 1434h405l-82 -463q43 44 208.5 209.5t250.5 253.5h486zM776 -229q0 -54 -45.5 -138t-146.5 -223h-207l84 203q-92 16 -92 104q0 86 73.5 136.5t169.5 50.5
q70 0 117 -35t47 -98z" />
    <glyph glyph-name="kcommaaccent" unicode="&#x137;" horiz-adv-x="1163" 
d="M256 1434h379l-125 -719l262 297h420l-2 -17l-436 -458l321 -514l-4 -23h-426l-201 352l-61 -352h-379zM641 -227q0 -54 -43.5 -140t-138.5 -225h-197l80 205q-88 16 -88 106q0 87 69.5 138t161.5 51q66 0 111 -36t45 -99z" />
    <glyph glyph-name="kgreenlandic" unicode="&#x138;" horiz-adv-x="1163" 
d="M182 1014h379l-51 -299l262 297h420l-2 -17l-436 -458l321 -514l-4 -23h-426l-201 352l-61 -352h-379z" />
    <glyph glyph-name="Lacute" unicode="&#x139;" horiz-adv-x="1265" 
d="M698 1434h-405l-252 -1434h1092l61 344h-686zM971 1864l-2 -15l-283 -299h-334l2 13l217 301h400z" />
    <glyph glyph-name="lacute" unicode="&#x13a;" horiz-adv-x="593" 
d="M631 1436h-373l-254 -1436h373zM893 1855l-2 -14l-268 -291h-316l2 11l207 294h377z" />
    <glyph glyph-name="Lcommaaccent" unicode="&#x13b;" horiz-adv-x="1265" 
d="M293 1434h405l-190 -1090h686l-61 -344h-1092zM733 -231q0 -56 -43.5 -145t-138.5 -230h-197l80 211q-88 16 -88 108q0 90 70 142.5t162 52.5q66 0 110.5 -36.5t44.5 -102.5z" />
    <glyph glyph-name="lcommaaccent" unicode="&#x13c;" horiz-adv-x="593" 
d="M258 1436h373l-254 -1436h-373zM332 -242q0 -56 -43.5 -144t-138.5 -230h-197l80 210q-88 16 -88 109q0 90 69.5 142.5t161.5 52.5q66 0 111 -37t45 -103z" />
    <glyph glyph-name="Lcaron" unicode="&#x13d;" horiz-adv-x="1271" 
d="M293 1434h405l-190 -1090h686l-61 -344h-1092zM842 956l182 482h330l-254 -482h-258z" />
    <glyph glyph-name="lcaron" unicode="&#x13e;" horiz-adv-x="788" 
d="M258 1438h373l-254 -1438h-373zM596 950l182 484h330l-254 -484h-258z" />
    <glyph glyph-name="Ldot" unicode="&#x13f;" horiz-adv-x="1265" 
d="M293 1434h405l-190 -1090h686l-61 -344h-1092zM907 563q-120 0 -164 84q-36 72 0 158q37 88 127 126q49 21 107 21q120 0 164 -84q36 -72 0 -158q-37 -88 -127 -126q-49 -21 -107 -21z" />
    <glyph glyph-name="ldot" unicode="&#x140;" horiz-adv-x="980" 
d="M258 1436h373l-254 -1436h-373zM766 502q-120 0 -164 84q-36 72 0 158q37 88 127 126q49 21 107 21q120 0 164 -84q36 -72 0 -158q-37 -88 -127 -126q-49 -21 -107 -21z" />
    <glyph glyph-name="Lslash" unicode="&#x141;" horiz-adv-x="1280" 
d="M625 928l221 106l-53 -305l-222 -102l-49 -287h688l-61 -340h-1092l76 428l-153 -72l53 297l153 72l125 709h404z" />
    <glyph glyph-name="lslash" unicode="&#x142;" horiz-adv-x="673" 
d="M711 963l-47 -269l-144 -65l-110 -629h-373l78 440l-131 -65l49 276l129 62l123 694h372l-90 -508z" />
    <glyph glyph-name="Nacute" unicode="&#x143;" horiz-adv-x="1638" 
d="M1106 629l-469 805h-344l-252 -1434h410l79 459l50 313l462 -772h344l252 1434h-407l-86 -492q-13 -89 -39 -313zM1419 1882l-2 -16l-295 -318h-348l2 13l228 321h415z" />
    <glyph glyph-name="nacute" unicode="&#x144;" 
d="M692 0h377l98 561q14 90 13.5 160t-19 122.5t-46.5 89t-69.5 59.5t-88 33t-101.5 11q-87 2 -178.5 -31.5t-163.5 -103.5l2 111h-334l-178 -1012h373l94 532q16 94 76 144.5t133 50.5q60 0 93.5 -40.5t17.5 -127.5zM1128 1458l-2 -14l-264 -307h-311l2 12l203 309h372z
" />
    <glyph glyph-name="Ncommaaccent" unicode="&#x145;" horiz-adv-x="1638" 
d="M637 1434l469 -805q26 224 39 313l86 492h407l-252 -1434h-344l-462 772l-50 -313l-79 -459h-410l252 1434h344zM885 -207q0 -56 -44 -144.5t-139 -230.5h-196l80 211q-88 16 -88 109q0 90 69.5 142t161.5 52q67 0 111.5 -36.5t44.5 -102.5z" />
    <glyph glyph-name="ncommaaccent" unicode="&#x146;" 
d="M1069 0h-377l99 559q16 87 -17.5 127.5t-93.5 40.5q-73 0 -133 -50.5t-76 -144.5l-94 -532h-373l178 1012h334l-2 -111q72 70 163.5 103.5t178.5 31.5q55 -1 101.5 -11t88 -33t69.5 -59.5t46.5 -89t19 -122.5t-13.5 -160zM682 -219q0 -56 -43.5 -145t-138.5 -230h-197
l80 211q-88 16 -88 109q0 90 69.5 142t161.5 52q67 0 111.5 -36.5t44.5 -102.5z" />
    <glyph glyph-name="Ncaron" unicode="&#x147;" horiz-adv-x="1638" 
d="M1106 629l-469 805h-344l-252 -1434h410l79 459l50 313l462 -772h344l252 1434h-407l-86 -492q-13 -89 -39 -313zM1112 1542h-233l-252 297l2 14h321l88 -88l121 88h324l-2 -14z" />
    <glyph glyph-name="ncaron" unicode="&#x148;" 
d="M692 0h377l98 561q14 90 13.5 160t-19 122.5t-46.5 89t-69.5 59.5t-88 33t-101.5 11q-87 2 -178.5 -31.5t-163.5 -103.5l2 111h-334l-178 -1012h373l94 532q16 94 76 144.5t133 50.5q60 0 93.5 -40.5t17.5 -127.5zM858 1133h-223l-244 292l2 17h309l84 -88l117 88h309
l-2 -17z" />
    <glyph glyph-name="napostrophe" unicode="&#x149;" 
d="M1069 0h-377l99 559q16 87 -17.5 127.5t-93.5 40.5q-73 0 -133 -50.5t-76 -144.5l-94 -532h-373l178 1012h334l-2 -111q72 70 163.5 103.5t178.5 31.5q55 -1 101.5 -11t88 -33t69.5 -59.5t46.5 -89t19 -122.5t-13.5 -160z" />
    <glyph glyph-name="Eng" unicode="&#x14a;" horiz-adv-x="1628" 
d="M1225 1434h403l-260 -1481q-52 -294 -238 -390.5t-456 25.5l117 265q75 -47 133 -20t75 120l19 102q-140 228 -271 432.5t-167 262.5l-134 -750h-405l252 1434h338l461 -756z" />
    <glyph glyph-name="eng" unicode="&#x14b;" 
d="M367 -406l116 259q75 -44 132.5 -15t72.5 115l107 606q16 86 -19.5 127t-95.5 41q-73 0 -133 -50.5t-76 -144.5l-94 -532h-373l178 1012h334l-2 -111q72 70 163.5 103.5t178.5 31.5q55 -1 101.5 -11t88 -33t69.5 -59.5t46.5 -89t19 -122.5t-13.5 -160l-106 -612
q-25 -140 -95.5 -238.5t-165.5 -142.5t-208.5 -38.5t-224.5 64.5z" />
    <glyph glyph-name="Omacron" unicode="&#x14c;" horiz-adv-x="1738" 
d="M1698 850q3 -162 -41 -303t-127 -247t-198.5 -182t-258.5 -114.5t-303 -38.5q-207 0 -361 72t-240 212.5t-89 334.5q-4 199 66 366.5t194.5 280t296.5 175t371 62.5q207 0 361 -72.5t240 -212.5t89 -333zM1288 793q3 152 -82 240.5t-239 88.5q-197 0 -336 -136.5
t-142 -338.5q-3 -151 84 -243.5t236 -92.5q203 0 339.5 138t139.5 344zM682 1602l51 286h717l-51 -286h-717z" />
    <glyph glyph-name="omacron" unicode="&#x14d;" horiz-adv-x="1271" 
d="M713 1034q102 0 189.5 -26.5t156 -79t108 -138t39.5 -194.5q0 -125 -40.5 -229.5t-107.5 -175.5t-156 -120.5t-184.5 -72.5t-193.5 -23q-100 0 -187 26.5t-156.5 78.5t-109.5 138t-40 196q0 126 39.5 230.5t105.5 175.5t154.5 120t184.5 71.5t198 22.5zM580 285
q106 0 178.5 75.5t72.5 180.5q0 79 -45.5 131.5t-128.5 52.5q-110 0 -180.5 -77.5t-70.5 -180.5q0 -78 45.5 -130t128.5 -52zM399 1157l43 293h625l-43 -293h-625z" />
    <glyph glyph-name="Obreve" unicode="&#x14e;" horiz-adv-x="1738" 
d="M1698 850q3 -162 -41 -303t-127 -247t-198.5 -182t-258.5 -114.5t-303 -38.5q-207 0 -361 72t-240 212.5t-89 334.5q-4 199 66 366.5t194.5 280t296.5 175t371 62.5q207 0 361 -72.5t240 -212.5t89 -333zM1288 793q3 152 -82 240.5t-239 88.5q-197 0 -336 -136.5
t-142 -338.5q-3 -151 84 -243.5t236 -92.5q203 0 339.5 138t139.5 344zM750 1882h292q-6 -26 0.5 -44t21.5 -26t27.5 -11t24.5 -3q18 0 37 5t42.5 25t29.5 54h291q-26 -151 -149 -237t-298 -86q-177 0 -265.5 86t-53.5 237z" />
    <glyph glyph-name="obreve" unicode="&#x14f;" horiz-adv-x="1271" 
d="M713 1034q102 0 189.5 -26.5t156 -79t108 -138t39.5 -194.5q0 -125 -40.5 -229.5t-107.5 -175.5t-156 -120.5t-184.5 -72.5t-193.5 -23q-100 0 -187 26.5t-156.5 78.5t-109.5 138t-40 196q0 126 39.5 230.5t105.5 175.5t154.5 120t184.5 71.5t198 22.5zM580 285
q106 0 178.5 75.5t72.5 180.5q0 79 -45.5 131.5t-128.5 52.5q-110 0 -180.5 -77.5t-70.5 -180.5q0 -78 45.5 -130t128.5 -52zM434 1448h271q-3 -21 1 -37t11.5 -24t19 -13t20 -6.5t17.5 -1.5q17 0 34.5 4t40 24t28.5 54h272q-24 -148 -140 -233t-280 -85t-246 85t-49 233z
" />
    <glyph glyph-name="Ohungarumlaut" unicode="&#x150;" horiz-adv-x="1738" 
d="M1698 850q-3 193 -89 333t-240 212.5t-361 72.5q-199 0 -371 -62.5t-296.5 -175t-194.5 -280t-66 -366.5q3 -194 89 -334.5t240 -212.5t361 -72q160 0 303 38.5t258.5 114.5t198.5 182t127 247t41 303zM1288 793q-3 -206 -139.5 -344t-339.5 -138q-149 0 -236 92.5
t-84 243.5q3 202 142 338.5t336 136.5q154 0 239 -88.5t82 -240.5zM891 1868h348l-4 -15l-266 -290h-340zM1356 1868h348l-4 -15l-266 -290h-340z" />
    <glyph glyph-name="ohungarumlaut" unicode="&#x151;" horiz-adv-x="1271" 
d="M713 1034q-102 0 -198 -22.5t-184.5 -71.5t-154.5 -120t-105.5 -175.5t-39.5 -230.5q0 -110 40 -196t109.5 -138t156.5 -78.5t187 -26.5q98 0 193.5 23t184.5 72.5t156 120.5t107.5 175.5t40.5 229.5q0 109 -39.5 194.5t-108 138t-156 79t-189.5 26.5zM580 285
q-83 0 -128.5 52t-45.5 130q0 103 70.5 180.5t180.5 77.5q83 0 128.5 -52.5t45.5 -131.5q0 -105 -72.5 -180.5t-178.5 -75.5zM569 1425h328l-4 -14l-250 -281h-319zM1008 1425h327l-4 -14l-250 -281h-319z" />
    <glyph glyph-name="OE" unicode="&#x152;" horiz-adv-x="2103" 
d="M1962 319l-55 -319h-918q-119 -35 -272 -35q-161 0 -284 45t-199.5 126.5t-115 191.5t-38.5 245q0 151 37 285.5t112 246t182 192.5t252.5 126t317.5 45q101 0 254 -32h909l-55 -312h-619l-40 -229h581l-53 -307h-582l-49 -269h635zM473 631q0 -102 33.5 -184
t107.5 -134.5t179 -52.5q109 0 186 33l151 852q-77 33 -186 33q-126 0 -235.5 -77.5t-172.5 -203.5t-63 -266z" />
    <glyph glyph-name="oe" unicode="&#x153;" horiz-adv-x="1945" 
d="M1188 641h362q9 76 -70.5 108t-173 1.5t-118.5 -109.5zM582 285q112 0 177.5 76t65.5 186q0 79 -42.5 128.5t-123.5 49.5q-112 0 -177.5 -77t-65.5 -187q0 -79 42.5 -127.5t123.5 -48.5zM715 1034q240 0 346 -153q70 68 173 111.5t200 43.5q181 0 300.5 -76.5t153 -218
t-42.5 -342.5h-702q7 -62 67.5 -95.5t130.5 -33.5q151 0 275 82l149 -217q-101 -76 -233 -115.5t-264 -39.5q-246 0 -342 151q-198 -156 -422 -156q-134 0 -238.5 47.5t-168.5 148t-64 241.5q0 128 39 234t105 176.5t154.5 119t185 70.5t198.5 22z" />
    <glyph glyph-name="Racute" unicode="&#x154;" horiz-adv-x="1515" 
d="M1368 0l4 25l-287 483q388 120 388 506q0 85 -30 160t-87.5 133.5t-151 92.5t-211.5 34h-700l-252 -1434h405l82 465h158l252 -465h430zM643 1110h295q100 0 128 -78q26 -68 -15 -148q-43 -84 -125 -110q-22 -6 -45 -8h-299zM1296 1890l-2 -16l-280 -311h-330l2 10
l215 317h395z" />
    <glyph glyph-name="racute" unicode="&#x155;" horiz-adv-x="968" 
d="M520 1012h-338l-178 -1012h377l92 526q18 95 75.5 143t133.5 48q49 0 85 -13.5t73 -48.5l200 273q-39 52 -104.5 80t-142.5 28t-148 -33.5t-121 -101.5zM977 1444l-2 -14l-260 -285h-307l2 10l200 289h367z" />
    <glyph glyph-name="Rcommaaccent" unicode="&#x156;" horiz-adv-x="1515" 
d="M1372 25l-4 -25h-430l-252 465h-158l-82 -465h-405l252 1434h700q118 0 211.5 -34t151 -92.5t87.5 -133.5t30 -160q0 -386 -388 -506zM938 1110h-295l-61 -344h299q95 6 154 91q51 73 38 150q-13 78 -88 97q-22 6 -47 6zM809 -223q0 -56 -43.5 -145t-138.5 -230h-197
l80 211q-88 16 -88 108q0 90 69.5 142.5t161.5 52.5q67 0 111.5 -36.5t44.5 -102.5z" />
    <glyph glyph-name="rcommaaccent" unicode="&#x157;" horiz-adv-x="968" 
d="M182 1012h338l4 -111q50 68 121 101.5t148 33.5t142.5 -28t104.5 -80l-200 -273q-37 35 -73 48.5t-85 13.5q-76 0 -133.5 -48t-75.5 -143l-92 -526h-377zM328 -231q0 -54 -42 -140t-134 -225h-191l78 205q-86 16 -86 106q0 87 67.5 138t155.5 51q65 0 108.5 -36t43.5 -99
z" />
    <glyph glyph-name="Rcaron" unicode="&#x158;" horiz-adv-x="1515" 
d="M1368 0l4 25l-287 483q388 120 388 506q0 85 -30 160t-87.5 133.5t-151 92.5t-211.5 34h-700l-252 -1434h405l82 465h158l252 -465h430zM643 1110h295q100 0 128 -78q26 -68 -15 -148q-43 -84 -125 -110q-22 -6 -45 -8h-299zM993 1546h-235l-258 309l2 17h327l89 -94
l122 94h326l-2 -17z" />
    <glyph glyph-name="rcaron" unicode="&#x159;" horiz-adv-x="968" 
d="M520 1012h-338l-178 -1012h377l92 526q18 95 75.5 143t133.5 48q49 0 85 -13.5t73 -48.5l200 273q-39 52 -104.5 80t-142.5 28t-148 -33.5t-121 -101.5zM739 1130h-219l-237 293l2 15h303l82 -86l112 86h303l-2 -15z" />
    <glyph glyph-name="Sacute" unicode="&#x15a;" horiz-adv-x="1368" 
d="M1104 1040l246 252q-97 89 -219.5 129.5t-286.5 40.5q-103 0 -199 -18t-185 -58t-155 -98.5t-105.5 -146t-39.5 -193.5q0 -83 27 -146.5t71.5 -104.5t112.5 -69t137.5 -42t159.5 -23q107 -10 163 -41t56 -78q0 -63 -70.5 -101t-179.5 -38q-253 0 -391 162l-269 -256
q110 -141 253 -196.5t343 -55.5q145 0 271 30.5t228 92t161 165t59 238.5q0 80 -28.5 145.5t-76 111t-114 79t-137 52.5t-150.5 28q-45 4 -72 8t-58.5 11.5t-48 18t-27.5 28t-11 41.5q0 43 33.5 72t80.5 41t103 12q210 0 318 -93zM1260 1903l-3 -17l-278 -321h-328l2 12
l215 326h392z" />
    <glyph glyph-name="sacute" unicode="&#x15b;" horiz-adv-x="1050" 
d="M-47 106l172 275q62 -46 131.5 -72.5t110 -32t96.5 -8.5q112 0 112 56q0 22 -23.5 33t-74.5 16q-56 2 -108 11.5t-102.5 31t-87.5 52.5t-60 79t-23 108q0 81 30.5 146.5t81 108.5t119.5 72t144 41.5t156 12.5q121 0 224 -33t167 -90l-199 -225q-36 26 -108.5 44
t-135.5 18q-98 0 -98 -56q0 -16 15.5 -29t52.5 -14q411 -13 411 -280q0 -83 -30 -151t-81 -113.5t-120.5 -76t-145.5 -44t-159 -13.5q-135 0 -264.5 35.5t-202.5 97.5zM1001 1452l-2 -14l-260 -299h-303l2 10l199 303h364z" />
    <glyph glyph-name="Scircumflex" unicode="&#x15c;" horiz-adv-x="1368" 
d="M1104 1040l246 252q-97 89 -219.5 129.5t-286.5 40.5q-103 0 -199 -18t-185 -58t-155 -98.5t-105.5 -146t-39.5 -193.5q0 -83 27 -146.5t71.5 -104.5t112.5 -69t137.5 -42t159.5 -23q107 -10 163 -41t56 -78q0 -63 -70.5 -101t-179.5 -38q-253 0 -391 162l-269 -256
q110 -141 253 -196.5t343 -55.5q145 0 271 30.5t228 92t161 165t59 238.5q0 80 -28.5 145.5t-76 111t-114 79t-137 52.5t-150.5 28q-45 4 -72 8t-58.5 11.5t-48 18t-27.5 28t-11 41.5q0 43 33.5 72t80.5 41t103 12q210 0 318 -93zM819 1886h234l254 -321l-2 -17h-324l-88 97
l-121 -97h-323l2 17z" />
    <glyph glyph-name="scircumflex" unicode="&#x15d;" horiz-adv-x="1050" 
d="M-47 106l172 275q62 -46 131.5 -72.5t110 -32t96.5 -8.5q112 0 112 56q0 22 -23.5 33t-74.5 16q-56 2 -108 11.5t-102.5 31t-87.5 52.5t-60 79t-23 108q0 81 30.5 146.5t81 108.5t119.5 72t144 41.5t156 12.5q121 0 224 -33t167 -90l-199 -225q-36 26 -108.5 44
t-135.5 18q-98 0 -98 -56q0 -16 15.5 -29t52.5 -14q411 -13 411 -280q0 -83 -30 -151t-81 -113.5t-120.5 -76t-145.5 -44t-159 -13.5q-135 0 -264.5 35.5t-202.5 97.5zM592 1450h223l242 -313l-2 -17h-307l-84 94l-117 -94h-309l2 17z" />
    <glyph glyph-name="Scedilla" unicode="&#x15e;" horiz-adv-x="1372" 
d="M1354 1292l-246 -256q-115 99 -317 99q-56 0 -103 -12t-81 -41t-34 -72q0 -20 6.5 -35.5t22.5 -26.5t32 -18t45 -13t51.5 -9t60.5 -7q80 -9 150 -26t137 -49.5t114 -76.5t75.5 -108.5t28.5 -144.5q0 -98 -33.5 -180.5t-90.5 -141.5t-135.5 -103.5t-166 -69.5t-184.5 -36
l-31 -57q67 -7 113 -32.5t65 -64t16.5 -86t-28.5 -98.5q-36 -73 -104.5 -122t-148 -65.5t-159 -11t-147 39t-102.5 86.5l162 139q28 -28 75 -44t93.5 -6.5t64.5 48.5q15 33 -12 57t-71 25.5t-89 -19.5l-53 41l98 170q-140 12 -246 68.5t-200 177.5l268 256
q138 -162 391 -162q109 0 179.5 38t70.5 101q0 47 -56 78t-163 41q-91 9 -160 22.5t-138 41.5t-113 67.5t-71.5 103t-27.5 146.5q0 106 39.5 194t106 147t155.5 100t186 59t199 18q164 0 286.5 -40.5t219.5 -129.5z" />
    <glyph glyph-name="scedilla" unicode="&#x15f;" horiz-adv-x="1050" 
d="M-47 106l172 275q62 -46 131.5 -72.5t110 -32t96.5 -8.5q112 0 112 56q0 22 -23.5 33t-74.5 16q-56 2 -108 11.5t-102.5 31t-87.5 52.5t-60 79t-23 108q0 81 30.5 146.5t81 108.5t119.5 72t144 41.5t156 12.5q121 0 224 -33t167 -90l-199 -225q-36 26 -108.5 44
t-135.5 18q-98 0 -98 -56q0 -16 15.5 -29t52.5 -14q411 -13 411 -280q0 -88 -34.5 -159t-95 -117.5t-134.5 -74t-162 -38.5l-41 -74q63 -5 105.5 -29t60 -60t14.5 -81t-28 -92q-43 -82 -130 -128.5t-177 -51t-172.5 26.5t-120.5 93l145 127q23 -25 67.5 -39.5t88.5 -7.5
t59 41q14 29 -11 52t-65 25t-81 -17l-51 38l104 177q-233 28 -344 124z" />
    <glyph glyph-name="Scaron" unicode="&#x160;" horiz-adv-x="1368" 
d="M1104 1040l246 252q-97 89 -219.5 129.5t-286.5 40.5q-103 0 -199 -18t-185 -58t-155 -98.5t-105.5 -146t-39.5 -193.5q0 -83 27 -146.5t71.5 -104.5t112.5 -69t137.5 -42t159.5 -23q107 -10 163 -41t56 -78q0 -63 -70.5 -101t-179.5 -38q-253 0 -391 162l-269 -256
q110 -141 253 -196.5t343 -55.5q145 0 271 30.5t228 92t161 165t59 238.5q0 80 -28.5 145.5t-76 111t-114 79t-137 52.5t-150.5 28q-45 4 -72 8t-58.5 11.5t-48 18t-27.5 28t-11 41.5q0 43 33.5 72t80.5 41t103 12q210 0 318 -93zM987 1569h-235l-258 307l2 14h327l90 -90
l121 90h328l-2 -14z" />
    <glyph glyph-name="scaron" unicode="&#x161;" horiz-adv-x="1050" 
d="M-47 106l172 275q62 -46 131.5 -72.5t110 -32t96.5 -8.5q112 0 112 56q0 22 -23.5 33t-74.5 16q-56 2 -108 11.5t-102.5 31t-87.5 52.5t-60 79t-23 108q0 81 30.5 146.5t81 108.5t119.5 72t144 41.5t156 12.5q121 0 224 -33t167 -90l-199 -225q-36 26 -108.5 44
t-135.5 18q-98 0 -98 -56q0 -16 15.5 -29t52.5 -14q411 -13 411 -280q0 -83 -30 -151t-81 -113.5t-120.5 -76t-145.5 -44t-159 -13.5q-135 0 -264.5 35.5t-202.5 97.5zM729 1130h-213l-231 293l2 15h295l80 -86l110 86h293l-2 -15z" />
    <glyph glyph-name="Tcommaaccent" unicode="&#x162;" horiz-adv-x="1300" 
d="M104 -432l154 135q25 -30 74.5 -47t99.5 -7t68 50q17 40 -14 66t-79.5 25t-91.5 -23l-49 43l76 190l193 1100h-418l59 334h1241l-59 -334h-420l-195 -1100h-114l-31 -74q64 -7 108 -34t62 -67t14 -90t-30 -102q-45 -92 -140.5 -144.5t-194.5 -58t-188 30.5t-125 107z" />
    <glyph glyph-name="tcommaaccent" unicode="&#x163;" horiz-adv-x="876" 
d="M309 1257l383 41l-53 -292h227l-49 -289h-229l-60 -332q-14 -98 82 -98q59 0 117 35l33 -279q-120 -61 -271 -68l-38 -65q64 -7 108 -31.5t62.5 -60.5t15.5 -81t-29 -93q-48 -88 -137.5 -137t-181.5 -52t-177.5 30.5t-129.5 98.5l153 123q25 -27 69.5 -42t88.5 -7t61 45
q15 32 -10.5 55t-67 24t-83.5 -18l-52 39l125 211q-165 91 -110 371l59 332h-162l49 289h162z" />
    <glyph glyph-name="Tcaron" unicode="&#x164;" horiz-adv-x="1300" 
d="M535 1100l-195 -1100h403l195 1100h420l59 334h-1241l-59 -334h418zM936 1538h-234l-253 322l2 16h323l88 -96l121 96h324l-2 -16z" />
    <glyph glyph-name="tcaron" unicode="&#x165;" horiz-adv-x="1079" 
d="M309 1257l381 41l-51 -292h176l-51 -289h-178l-60 -332q-14 -98 84 -98q56 0 117 35l33 -279q-130 -68 -303 -68q-52 0 -96.5 8.5t-85 27.5t-68 50t-46.5 76.5t-19.5 107t12.5 140.5l59 332h-162l51 289h162zM842 854l176 473h323l-247 -473h-252z" />
    <glyph glyph-name="Tbar" unicode="&#x166;" horiz-adv-x="1320" 
d="M213 557l49 289h236l45 250h-418l59 338h1241l-59 -338h-420l-45 -250h246l-49 -289h-246l-98 -557h-404l99 557h-236z" />
    <glyph glyph-name="tbar" unicode="&#x167;" horiz-adv-x="870" 
d="M33 412l37 209h123l16 96h-162l51 289h162l45 251l381 41l-51 -292h227l-51 -289h-229l-17 -96h168l-37 -209h-168l-4 -27q-14 -98 82 -98q56 0 117 35l33 -279q-130 -68 -303 -68q-369 0 -301 410l4 27h-123z" />
    <glyph glyph-name="Utilde" unicode="&#x168;" horiz-adv-x="1603" 
d="M1221 1432h403l-141 -801q-55 -322 -248 -490t-524 -168q-323 0 -479 170t-99 492l139 797h404l-139 -797q-30 -163 28.5 -241.5t186.5 -78.5q127 0 213.5 79t113.5 237zM928 1587q-141 93 -211 -31l-178 142q36 73 92 122.5t117.5 68.5t125 12t115.5 -41
q42 -28 76 -36.5t70.5 8.5t70.5 64l170 -139q-76 -151 -196 -198.5t-252 28.5z" />
    <glyph glyph-name="utilde" unicode="&#x169;" 
d="M168 1012h377l-99 -559q-16 -87 18.5 -127.5t94.5 -40.5q74 0 131.5 47t75.5 141l94 539h373l-178 -1012h-334l4 111q-73 -71 -165 -104.5t-179 -31.5q-67 1 -120.5 16t-99 49t-70.5 88.5t-33.5 135t12.5 187.5zM698 1174q-139 95 -206 -33l-177 145q36 75 91.5 126
t116.5 71t123.5 12.5t113.5 -43.5q42 -28 75.5 -36t69 9.5t68.5 65.5l168 -141q-76 -158 -194.5 -206.5t-248.5 30.5z" />
    <glyph glyph-name="Umacron" unicode="&#x16a;" horiz-adv-x="1603" 
d="M1221 1432h403l-141 -801q-55 -322 -248 -490t-524 -168q-323 0 -479 170t-99 492l139 797h404l-139 -797q-30 -163 28.5 -241.5t186.5 -78.5q127 0 213.5 79t113.5 237zM612 1554l50 301h681l-47 -301h-684z" />
    <glyph glyph-name="umacron" unicode="&#x16b;" 
d="M168 1012h377l-99 -559q-16 -87 18.5 -127.5t94.5 -40.5q74 0 131.5 47t75.5 141l94 539h373l-178 -1012h-334l4 111q-73 -71 -165 -104.5t-179 -31.5q-67 1 -120.5 16t-99 49t-70.5 88.5t-33.5 135t12.5 187.5zM391 1167l45 285h637l-45 -285h-637z" />
    <glyph glyph-name="Ubreve" unicode="&#x16c;" horiz-adv-x="1603" 
d="M1221 1432h403l-141 -801q-55 -322 -248 -490t-524 -168q-323 0 -479 170t-99 492l139 797h404l-139 -797q-30 -163 28.5 -241.5t186.5 -78.5q127 0 213.5 79t113.5 237zM676 1880h297q-5 -27 2 -45.5t22 -26.5t27.5 -11t24.5 -3q18 0 37 5t42.5 25.5t30.5 55.5h297
q-26 -156 -151.5 -247t-305.5 -91q-178 0 -268 91t-55 247z" />
    <glyph glyph-name="ubreve" unicode="&#x16d;" 
d="M168 1012h377l-99 -559q-16 -87 18.5 -127.5t94.5 -40.5q74 0 131.5 47t75.5 141l94 539h373l-178 -1012h-334l4 111q-73 -71 -165 -104.5t-179 -31.5q-67 1 -120.5 16t-99 49t-70.5 88.5t-33.5 135t12.5 187.5zM442 1450h287q-5 -27 1.5 -45.5t21 -26.5t26.5 -11t23 -3
q18 0 36.5 5t41.5 25.5t30 55.5h285q-26 -153 -146 -240.5t-292 -87.5q-174 0 -261.5 87.5t-52.5 240.5z" />
    <glyph glyph-name="Uring" unicode="&#x16e;" horiz-adv-x="1603" 
d="M1221 1432h403l-141 -801q-55 -322 -248 -490t-524 -168q-323 0 -479 170t-99 492l139 797h404l-139 -797q-30 -163 28.5 -241.5t186.5 -78.5q127 0 213.5 79t113.5 237zM1044 2030q160 0 226 -101q54 -83 21 -190q-35 -108 -139 -170q-87 -53 -202 -53q-159 0 -223 101
q-53 83 -19 190q35 109 138 171q87 52 198 52zM1016 1845q-62 0 -89 -47q-23 -40 0 -71q19 -25 60 -25q61 0 87 47q22 40 -1 71q-17 25 -57 25z" />
    <glyph glyph-name="uring" unicode="&#x16f;" 
d="M168 1012h377l-99 -559q-16 -87 18.5 -127.5t94.5 -40.5q74 0 131.5 47t75.5 141l94 539h373l-178 -1012h-334l4 111q-73 -71 -165 -104.5t-179 -31.5q-67 1 -120.5 16t-99 49t-70.5 88.5t-33.5 135t12.5 187.5zM791 1563q156 0 218 -95q50 -77 15 -174
q-36 -100 -138 -155q-81 -43 -184 -43q-153 0 -212 95q-49 77 -14 176q36 100 138 154q78 42 177 42zM764 1395q-58 0 -83 -43q-22 -37 2 -65q17 -21 56 -21q56 0 81 43q21 37 -2 65q-17 21 -54 21z" />
    <glyph glyph-name="Uhungarumlaut" unicode="&#x170;" horiz-adv-x="1603" 
d="M1624 1432h-403l-142 -801q-27 -158 -113.5 -237t-213.5 -79q-128 0 -186.5 78.5t-28.5 241.5l139 797h-404l-139 -797q-57 -322 99 -492t479 -170q331 0 524 168t248 490zM813 1862h340l-4 -17l-260 -311h-332zM1270 1862h340l-4 -17l-263 -311h-331z" />
    <glyph glyph-name="uhungarumlaut" unicode="&#x171;" 
d="M545 1012h-377l-98 -561q-21 -107 -12.5 -187.5t33.5 -135t70.5 -88.5t99 -49t120.5 -16q87 -2 179 31.5t165 104.5l-4 -111h334l178 1012h-373l-94 -539q-18 -94 -75.5 -141t-131.5 -47q-60 0 -94.5 40.5t-18.5 127.5zM551 1434h328l-5 -15l-251 -280h-320zM989 1434
h326l-4 -15l-250 -280h-320z" />
    <glyph glyph-name="Uogonek" unicode="&#x172;" horiz-adv-x="1609" 
d="M1223 1432h403l-141 -801q-41 -237 -173 -395.5t-335 -225.5l-12 -4q-3 -1 -8 -2t-7 -2q-35 -11 -55.5 -33.5t-17.5 -52.5q4 -48 63 -52.5t125 30.5l117 -199q-109 -69 -240 -98.5t-242.5 0t-144.5 122.5q-23 66 2 137.5t86 114.5q-295 12 -430 182t-80 482l141 797h404
l-141 -797q-28 -163 30.5 -241.5t186.5 -78.5q127 0 213 79t114 237z" />
    <glyph glyph-name="uogonek" unicode="&#x173;" 
d="M168 1012h377l-99 -559q-16 -87 18.5 -127.5t94.5 -40.5q74 0 131.5 47t75.5 141l94 539h373l-191 -1086q-83 23 -144.5 -9.5t-59.5 -78.5q2 -31 41 -39.5t114 19.5l86 -158q-52 -36 -121 -57t-138 -21.5t-128.5 15.5t-97 58.5t-39.5 104.5q-3 80 45 147t125 99v111
q-73 -71 -166 -107.5t-178 -34.5q-67 1 -120.5 16t-99 49t-70.5 88.5t-33.5 135t12.5 187.5z" />
    <glyph glyph-name="Wcircumflex" unicode="&#x174;" horiz-adv-x="2189" 
d="M1581 2l758 1432h-443l-399 -836l-125 836h-280l-412 -836q-1 76 -5 130t-30.5 238.5t-77.5 467.5h-442l283 -1432h327l367 686l133 -686h346zM1206 1927h254l277 -348l-2 -16h-353l-96 104l-131 -104h-352l2 16z" />
    <glyph glyph-name="wcircumflex" unicode="&#x175;" horiz-adv-x="1710" 
d="M1038 1012h-227l-276 -563l-29 284l-47 279h-393l188 -1018h350l207 383l74 -383h346l551 1018h-396l-143 -277l-125 -286zM893 1473h235l258 -320l-2 -16h-327l-90 96l-123 -96h-328l2 16z" />
    <glyph glyph-name="Ycircumflex" unicode="&#x176;" horiz-adv-x="1480" 
d="M774 942l-211 492h-438l-2 -17l395 -846l-100 -571h405l101 571l718 844l3 19h-476zM850 1880h242l262 -317l-2 -15h-334l-92 94l-125 -94h-336l4 15z" />
    <glyph glyph-name="ycircumflex" unicode="&#x177;" horiz-adv-x="1271" 
d="M453 512l88 500h-373l-90 -506q-14 -89 -13 -166t25.5 -140t68 -108t115 -69.5t166.5 -24.5q89 0 153 28.5t122 100.5l-25 -137q-16 -93 -60.5 -142t-129.5 -49q-69 0 -110.5 26.5t-37.5 96.5h-354q-28 -212 91 -319t353 -107q239 0 403 123t208 375l180 1018h-377
l-90 -506q-7 -39 -19.5 -73t-34 -68t-57 -54t-80.5 -20q-161 0 -122 221zM688 1491h258l283 -334l-2 -18h-361l-96 100l-135 -100h-361l2 18z" />
    <glyph glyph-name="Ydieresis" unicode="&#x178;" horiz-adv-x="1480" 
d="M444 1708q0 93 68.5 148t157.5 55q68 0 117 -40.5t49 -109.5q0 -89 -70.5 -142.5t-157.5 -53.5q-68 0 -116 38.5t-48 104.5zM1038 1710q0 91 70 146t160 55q67 0 115.5 -40.5t48.5 -109.5q0 -89 -70.5 -142.5t-155.5 -53.5q-71 0 -119.5 38.5t-48.5 106.5zM774 942
l-211 492h-438l-2 -17l395 -846l-100 -571h405l101 571l718 844l3 19h-476z" />
    <glyph glyph-name="Zacute" unicode="&#x179;" horiz-adv-x="1318" 
d="M233 1434l-57 -328h606l-813 -979l-22 -127h1200l61 350h-643l799 969l18 115h-1149zM1262 1901l-2 -17l-281 -325h-330l2 12l215 330h396z" />
    <glyph glyph-name="zacute" unicode="&#x17a;" horiz-adv-x="1013" 
d="M1004 1012h-846l-54 -299h365l-508 -596l-20 -117h903l57 324h-403l483 561zM1018 1434l-2 -15l-260 -282h-307l2 10l200 287h367z" />
    <glyph glyph-name="Zdotaccent" unicode="&#x17b;" horiz-adv-x="1318" 
d="M233 1434l-57 -328h606l-813 -979l-22 -127h1200l61 350h-643l799 969l18 115h-1149zM666 1710q0 68 39.5 119t97 74.5t121.5 23.5q78 0 134 -43t56 -117q0 -99 -79 -156t-179 -57q-80 0 -135 41.5t-55 114.5z" />
    <glyph glyph-name="zdotaccent" unicode="&#x17c;" horiz-adv-x="1013" 
d="M1004 1012h-846l-54 -299h365l-508 -596l-20 -117h903l57 324h-403l483 561zM451 1270q0 86 69 136t156 50q69 0 117.5 -36.5t48.5 -100.5q0 -85 -70 -135.5t-156 -50.5q-69 0 -117 37t-48 100z" />
    <glyph glyph-name="Zcaron" unicode="&#x17d;" horiz-adv-x="1318" 
d="M233 1434l-57 -328h606l-813 -979l-22 -127h1200l61 350h-643l799 969l18 115h-1149zM977 1556h-234l-254 322l3 16h323l88 -96l121 96h324l-2 -16z" />
    <glyph glyph-name="zcaron" unicode="&#x17e;" horiz-adv-x="1013" 
d="M1004 1012h-846l-54 -299h365l-508 -596l-20 -117h903l57 324h-403l483 561zM735 1120h-219l-237 291l2 14h303l82 -88l114 88h303l-2 -14z" />
    <glyph glyph-name="longs" unicode="&#x17f;" horiz-adv-x="741" 
d="M483 0h-377l123 702h-172l52 291h172l8 49q15 86 53 156.5t89 117.5t113.5 79.5t126 46.5t128.5 14q193 0 284 -110l-153 -228q-49 49 -129 49q-48 0 -86 -31.5t-49 -93.5z" />
    <glyph glyph-name="florin" unicode="&#x192;" horiz-adv-x="1085" 
d="M967 666h-262l-119 -668q-17 -94 -57 -171.5t-95 -127.5t-121 -83t-135.5 -41.5t-136.5 -0.5t-128 37t-106 74l156 227q27 -27 50 -38t59 -11q49 0 87.5 33t49.5 100l119 670h-224l52 290h223l14 86q14 86 52 156.5t88.5 117.5t113.5 79.5t127 46.5t129 14
q191 0 285 -110l-156 -228q-49 49 -127 49q-49 0 -87 -31.5t-48 -93.5l-14 -86h262z" />
    <glyph glyph-name="Aringacute" unicode="&#x1fa;" horiz-adv-x="1636" 
d="M1024 1747q-89 0 -163 -27.5t-119 -73t-68.5 -99.5t-16 -111.5t44.5 -104.5l-833 -1331h430l135 236h641l53 -236h435l-361 1327q57 46 86.5 103.5t24.5 112t-35.5 101t-97 75t-156.5 28.5zM905 1085l47 -299l47 -211h-366l121 211zM991 1538q62 0 77 -45q13 -39 -20 -73
q-30 -31 -81 -31q-65 0 -81 45q-13 38 20 72q31 32 85 32zM1483 2019l-2 -12l-293 -219h-344l2 8l225 223h412z" />
    <glyph glyph-name="aringacute" unicode="&#x1fb;" horiz-adv-x="1331" 
d="M938 1012l-37 -109q-62 131 -274 131q-165 0 -302 -84t-215.5 -228t-78.5 -316q0 -184 98.5 -299t282.5 -125q91 -5 187.5 26.5t168.5 100.5l-2 -109h348l178 1012h-354zM659 729q84 0 129.5 -47.5t45.5 -130.5q0 -108 -74 -187t-180 -79q-74 0 -121 47.5t-47 130.5
q0 119 73 192.5t174 73.5zM862 1536q-162 0 -258 -98q-74 -75 -70 -166q4 -93 88 -140q61 -34 152 -34q167 0 264 98q75 75 71 166q-5 93 -91 140q-63 34 -156 34zM836 1378q54 0 64 -39q8 -35 -25 -62q-25 -22 -64 -22q-56 0 -66 39q-9 34 25 62q27 22 66 22zM1292 1825
l-2 -13l-268 -223h-315l2 8l206 228h377z" />
    <glyph glyph-name="AEacute" unicode="&#x1fc;" horiz-adv-x="1900" 
d="M-150 23l-4 -23h408l168 215h426l-39 -215h901l57 322h-528l43 249h463l55 314h-463l41 225h498l55 324h-983zM909 569h-223l340 492l-70 -254zM1786 1858l-2 -15l-289 -307h-340l2 12l221 310h408z" />
    <glyph glyph-name="aeacute" unicode="&#x1fd;" horiz-adv-x="1941" 
d="M1456 1423l-2 -14l-246 -299h-288l2 12l188 301h346zM672 729q85 0 130.5 -48t45.5 -136q0 -115 -73.5 -187.5t-182.5 -72.5q-75 0 -121.5 47.5t-46.5 130.5q0 119 73.5 192.5t174.5 73.5zM1556 641h-372q25 79 121 109.5t178 -1.5t73 -108zM1139 399h692q80 201 49 341
t-135.5 214.5t-255.5 75.5q-176 3 -322 -102l9 84h-238l-37 -109q-62 131 -274 131q-165 0 -302 -84t-215.5 -228t-78.5 -316q0 -184 98.5 -299t282.5 -125q91 -5 187.5 26.5t168.5 100.5l-2 -109h231l23 92q69 -115 260 -115q133 0 260 42.5t229 125.5l-147 207
q-124 -82 -274 -82q-71 0 -136 33.5t-73 95.5z" />
    <glyph glyph-name="Oslashacute" unicode="&#x1fe;" horiz-adv-x="1736" 
d="M1470 1944l-2 -17l-280 -325h-330l2 12l215 330h395zM1782 1575h-355l-122 -148q-128 41 -285 41q-158 0 -301.5 -39.5t-260 -116t-202.5 -182.5t-133 -246t-47 -300q0 -140 44 -258t124 -193l-236 -285h350l125 152q125 -35 273 -35q201 0 374 61.5t299.5 173.5
t198.5 280t72 370q0 135 -40.5 249t-115.5 189zM961 1122q30 0 88 -8l-527 -639q-33 74 -33 170q0 203 136.5 340t335.5 137zM1288 791q0 -205 -134.5 -342.5t-336.5 -137.5q-37 0 -74 6l521 629q24 -61 24 -155z" />
    <glyph glyph-name="oslashacute" unicode="&#x1ff;" horiz-adv-x="1275" 
d="M1112 1458l-2 -14l-254 -264h-299l2 10l195 268h358zM582 285q-81 0 -123.5 48.5t-42.5 127.5q0 110 65.5 187t177.5 77q81 0 123.5 -49.5t42.5 -128.5q0 -110 -65.5 -186t-177.5 -76zM715 1034q-103 0 -199 -22t-184.5 -70.5t-154.5 -119.5t-105 -177t-39 -235
q0 -101 31.5 -182.5t87.5 -131.5l-172 -219h350l82 107q88 -9 114 -9q99 0 193.5 21.5t184 70t156.5 119.5t107.5 178t40.5 238q0 203 -112 309l176 226h-348l-86 -113q-68 10 -123 10z" />
    <glyph glyph-name="Scommaaccent" unicode="&#x218;" horiz-adv-x="1368" 
d="M1350 1292l-246 -252q-108 93 -318 93q-56 0 -103 -12t-80.5 -41t-33.5 -72q0 -24 11 -41.5t27.5 -28t48 -18t58.5 -11.5t72 -8q80 -9 150.5 -28t137 -52.5t114 -79t76 -111t28.5 -145.5q0 -135 -59 -238.5t-161 -165t-228 -92t-271 -30.5q-200 0 -343 55.5t-253 196.5
l269 256q138 -162 391 -162q109 0 179.5 38t70.5 101q0 47 -56 78t-163 41q-90 9 -159.5 23t-137.5 42t-112.5 69t-71.5 104.5t-27 146.5q0 106 39.5 193.5t105.5 146t155 98.5t185 58t199 18q164 0 286.5 -40.5t219.5 -129.5zM764 -264q0 -52 -48 -137.5t-151 -223.5h-211
l86 203q-96 16 -96 105q0 87 75.5 137.5t174.5 50.5q72 0 121 -36t49 -99z" />
    <glyph glyph-name="scommaaccent" unicode="&#x219;" horiz-adv-x="1050" 
d="M-47 106l172 275q62 -46 131.5 -72.5t110 -32t96.5 -8.5q112 0 112 56q0 22 -23.5 33t-74.5 16q-56 2 -108 11.5t-102.5 31t-87.5 52.5t-60 79t-23 108q0 81 30.5 146.5t81 108.5t119.5 72t144 41.5t156 12.5q121 0 224 -33t167 -90l-199 -225q-36 26 -108.5 44
t-135.5 18q-98 0 -98 -56q0 -16 15.5 -29t52.5 -14q411 -13 411 -280q0 -83 -30 -151t-81 -113.5t-120.5 -76t-145.5 -44t-159 -13.5q-135 0 -264.5 35.5t-202.5 97.5zM586 -242q0 -50 -40.5 -126.5t-129.5 -202.5h-185l74 186q-82 13 -82 94q0 80 65.5 126t151.5 46
q62 0 104 -32t42 -91z" />
    <glyph glyph-name="uni021A" unicode="&#x21a;" horiz-adv-x="1300" 
d="M340 0l195 1100h-418l59 334h1241l-59 -334h-420l-195 -1100h-403zM676 -227q0 -54 -43.5 -142.5t-136.5 -228.5h-195l78 209q-86 16 -86 106t68.5 141.5t160.5 51.5q66 0 110 -35.5t44 -101.5z" />
    <glyph glyph-name="uni021B" unicode="&#x21b;" horiz-adv-x="874" 
d="M309 1257l381 41l-51 -292h227l-51 -289h-229l-60 -332q-14 -98 84 -98q56 0 117 35l33 -279q-130 -68 -303 -68q-52 0 -96.5 8.5t-85 27.5t-68 50t-46.5 76.5t-19.5 107t12.5 140.5l59 332h-162l51 289h162zM547 -242q0 -54 -43.5 -142t-136.5 -228h-195l78 209
q-86 16 -86 106t68.5 141.5t160.5 51.5q65 0 109.5 -36t44.5 -102z" />
    <glyph glyph-name="dotlessj" unicode="&#x237;" horiz-adv-x="600" 
d="M-322 -412l119 265q73 -46 127.5 -19.5t71.5 119.5l184 1042h377l-184 -1042q-26 -144 -97 -245t-166.5 -145.5t-208.5 -39t-223 64.5z" />
    <glyph glyph-name="circumflex" unicode="&#x2c6;" horiz-adv-x="923" 
d="M575 1446h234l254 -322l-2 -16h-324l-88 96l-121 -96h-323l2 16z" />
    <glyph glyph-name="caron" unicode="&#x2c7;" horiz-adv-x="913" 
d="M772 1094h-233l-254 321l2 17h323l88 -97l121 97h324l-2 -17z" />
    <glyph glyph-name="breve" unicode="&#x2d8;" horiz-adv-x="831" 
d="M313 1434h275q-5 -28 1 -47.5t20 -28t25.5 -12t22.5 -3.5q16 0 34 5t40.5 27.5t28.5 58.5h274q-24 -162 -140.5 -255.5t-281.5 -93.5q-166 0 -249 93.5t-50 255.5z" />
    <glyph glyph-name="dotaccent" unicode="&#x2d9;" horiz-adv-x="565" 
d="M291 1221q0 98 73.5 154.5t167.5 56.5q74 0 126.5 -41.5t52.5 -114.5q0 -96 -74.5 -152.5t-167.5 -56.5q-74 0 -126 41t-52 113z" />
    <glyph glyph-name="ring" unicode="&#x2da;" horiz-adv-x="874" 
d="M678 1446q168 0 239 -108q58 -89 27 -206q-33 -120 -139 -192q-97 -66 -227 -66q-165 0 -234 108q-58 90 -25 208q33 119 138 191q96 65 221 65zM647 1241q-64 0 -93 -51q-25 -43 -2 -78q19 -31 66 -31q62 0 91 51q24 43 2 78q-18 31 -64 31z" />
    <glyph glyph-name="ogonek" unicode="&#x2db;" horiz-adv-x="798" 
d="M469 -258l92 -154q-61 -47 -149 -66.5t-167.5 -9t-137.5 58t-60 124.5q-5 126 95.5 213.5t250.5 87.5q65 0 133 -12l9 -154q-42 12 -103 12q-51 0 -86.5 -23.5t-32.5 -58.5q2 -24 33 -31.5t65.5 -2t57.5 15.5z" />
    <glyph glyph-name="tilde" unicode="&#x2dc;" horiz-adv-x="997" 
d="M688 1169q-147 88 -219 -28l-184 131q37 68 95.5 114.5t122.5 64t130 11t119 -38.5q44 -26 79.5 -33.5t73 8.5t72.5 60l176 -129q-79 -142 -204 -186.5t-261 26.5z" />
    <glyph glyph-name="hungarumlaut" unicode="&#x2dd;" horiz-adv-x="1085" 
d="M485 1434h344l-4 -17l-264 -317h-336zM946 1434h344l-4 -17l-264 -317h-336z" />
    <glyph glyph-name="_375" unicode="&#x394;" horiz-adv-x="1626" 
d="M1614 35l-6 -35h-1647l4 25l869 1409h409zM969 1028l-412 -702h569z" />
    <glyph glyph-name="_376" unicode="&#x3a9;" horiz-adv-x="1691" 
d="M1028 1137q-169 0 -294.5 -118.5t-155.5 -287.5q-10 -51 -10 -98.5t11.5 -95.5t36 -86.5t67.5 -69t101 -45.5l-59 -336h-633l58 322h190q-76 56 -114 160.5t-38 211.5q0 158 65 300t180 248.5t285 169.5t369 63q155 0 280 -44t207 -122.5t125.5 -186.5t43.5 -237
q0 -168 -85 -326.5t-235 -236.5h199l-57 -322h-633l59 336q97 23 170.5 75t114 119t60.5 137t20 140q0 149 -86 239.5t-242 90.5z" />
    <glyph glyph-name="mu" unicode="&#x3bc;" horiz-adv-x="1320" 
d="M1118 0h-305l-14 129q-42 -77 -122 -114.5t-161 -18t-123 93.5l-90 -510h-352l252 1432h366l-84 -482q-18 -105 28 -151.5t122 -46.5q77 0 137.5 50t79.5 150l84 480h360z" />
    <glyph glyph-name="pi" unicode="&#x3c0;" horiz-adv-x="1435" 
d="M489 0h-374l125 709h-191l53 301h1338l-54 -301h-190l-68 -381q-6 -35 3.5 -55.5t31.5 -25t46.5 -2.5t56.5 11l-13 -254q-59 -15 -114.5 -21.5t-111 -5.5t-100 14t-83 38.5t-59.5 66t-29.5 96.5t6.5 132l67 387h-215z" />
    <glyph glyph-name="Wgrave" unicode="&#x1e80;" horiz-adv-x="2189" 
d="M2339 1434l-758 -1432h-346l-133 686l-367 -686h-327l-283 1432h442q51 -283 77.5 -467.5t30.5 -238.5t5 -130l412 836h280l125 -836l399 836h443zM940 1866l2 16h428l109 -305l-2 -12h-357z" />
    <glyph glyph-name="wgrave" unicode="&#x1e81;" horiz-adv-x="1710" 
d="M811 1012h227l80 -563l125 286l143 277h396l-551 -1018h-346l-74 383l-207 -383h-350l-188 1018h393l47 -279l29 -284zM672 1421l2 15h387l98 -289l-2 -10h-323z" />
    <glyph glyph-name="Wacute" unicode="&#x1e82;" horiz-adv-x="2189" 
d="M1581 2l758 1432h-443l-399 -836l-125 836h-280l-412 -836q-1 76 -5 130t-30.5 238.5t-77.5 467.5h-442l283 -1432h327l367 686l133 -686h346zM1759 1882l-2 -14l-299 -307h-350l2 12l229 309h420z" />
    <glyph glyph-name="wacute" unicode="&#x1e83;" horiz-adv-x="1710" 
d="M1038 1012h-227l-276 -563l-29 284l-47 279h-393l188 -1018h350l207 383l74 -383h346l551 1018h-396l-143 -277l-125 -286zM1405 1440l-2 -15l-279 -290h-327l2 10l213 295h393z" />
    <glyph glyph-name="Wdieresis" unicode="&#x1e84;" horiz-adv-x="2189" 
d="M1581 2l758 1432h-443l-399 -836l-125 836h-280l-412 -836q-1 76 -5 130t-30.5 238.5t-77.5 467.5h-442l283 -1432h327l367 686l133 -686h346zM795 1700q0 93 68.5 148t156.5 55q68 0 117 -40.5t49 -109.5q0 -89 -70.5 -143t-157.5 -54q-69 0 -116 38.5t-47 105.5z
M1389 1702q0 92 69.5 146.5t159.5 54.5q67 0 115.5 -40.5t48.5 -109.5q0 -89 -70.5 -143t-155.5 -54q-71 0 -119 39t-48 107z" />
    <glyph glyph-name="wdieresis" unicode="&#x1e85;" horiz-adv-x="1710" 
d="M1038 1012h-227l-276 -563l-29 284l-47 279h-393l188 -1018h350l207 383l74 -383h346l551 1018h-396l-143 -277l-125 -286zM514 1257q0 86 64 137.5t147 51.5q64 0 109 -37.5t45 -101.5q0 -84 -65.5 -134.5t-145.5 -50.5q-64 0 -109 36.5t-45 98.5zM1067 1260
q0 84 65 135t148 51q62 0 107 -37.5t45 -101.5q0 -83 -65.5 -134t-143.5 -51q-66 0 -111 37t-45 101z" />
    <glyph glyph-name="Ygrave" unicode="&#x1ef2;" horiz-adv-x="1480" 
d="M563 1434l211 -492l395 492h476l-3 -19l-718 -844l-101 -571h-405l100 571l-395 846l2 17h438zM506 1862l2 16h434l111 -317l-2 -11h-363z" />
    <glyph glyph-name="ygrave" unicode="&#x1ef3;" horiz-adv-x="1271" 
d="M541 1012l-88 -500q-39 -221 122 -221q45 0 80.5 20t57 54t34 68t19.5 73l90 506h377l-180 -1018q-44 -252 -208 -375t-403 -123q-234 0 -353 107t-91 319h354q-4 -70 37.5 -96.5t110.5 -26.5q85 0 129.5 49t60.5 142l25 137q-58 -72 -122 -100.5t-153 -28.5
q-95 0 -166.5 24.5t-115 69.5t-68 108t-25.5 140t13 166l90 506h373zM418 1432l2 16h389l100 -322l-2 -12h-325z" />
    <glyph glyph-name="endash" unicode="&#x2013;" horiz-adv-x="1247" 
d="M80 430l53 301h1026l-53 -301h-1026z" />
    <glyph glyph-name="emdash" unicode="&#x2014;" horiz-adv-x="1435" 
d="M84 436l53 301h1206l-53 -301h-1206z" />
    <glyph glyph-name="quoteleft" unicode="&#x2018;" horiz-adv-x="608" 
d="M684 1436l-199 -531h-362l278 531h283z" />
    <glyph glyph-name="quoteright" unicode="&#x2019;" horiz-adv-x="595" 
d="M137 903l199 531h362l-278 -531h-283z" />
    <glyph glyph-name="quotesinglbase" unicode="&#x201a;" horiz-adv-x="618" 
d="M-123 -317l199 524h368l-270 -524h-297z" />
    <glyph glyph-name="quotedblleft" unicode="&#x201c;" horiz-adv-x="1038" 
d="M709 1434l-236 -519h-348l309 519h275zM1112 1434l-192 -519h-355l271 519h276z" />
    <glyph glyph-name="quotedblright" unicode="&#x201d;" horiz-adv-x="1019" 
d="M547 915l235 519h348l-309 -519h-274zM143 915l193 519h354l-270 -519h-277z" />
    <glyph glyph-name="quotedblbase" unicode="&#x201e;" horiz-adv-x="1062" 
d="M-123 -317l199 524h360l-262 -524h-297zM330 -317l205 524h354l-266 -524h-293z" />
    <glyph glyph-name="dagger" unicode="&#x2020;" horiz-adv-x="1249" 
d="M956 1434l-61 -355h367l-58 -321h-366l-166 -946h-377l166 946h-363l58 321h362l62 355h376z" />
    <glyph glyph-name="daggerdbl" unicode="&#x2021;" horiz-adv-x="1302" 
d="M985 1436l-63 -351h366l-53 -307h-367l-59 -336h367l-54 -303h-366l-62 -348h-372l61 348h-367l54 303h366l60 336h-367l53 307h367l63 351h373z" />
    <glyph glyph-name="bullet" unicode="&#x2022;" horiz-adv-x="901" 
d="M406 348q-123 0 -198 67t-75 177q0 145 110 241.5t265 96.5q120 0 194 -69t74 -179q0 -146 -108.5 -240t-261.5 -94z" />
    <glyph glyph-name="ellipsis" unicode="&#x2026;" horiz-adv-x="1683" 
d="M182 -16q-115 0 -156 81q-35 70 2 153q38 86 127 120q43 16 93 16q117 0 159 -81q35 -69 -2 -152q-38 -85 -127 -119q-44 -18 -96 -18zM735 -16q-115 0 -156 81q-35 70 2 153q38 86 127 120q43 16 93 16q117 0 159 -81q35 -69 -2 -152q-38 -85 -127 -119q-44 -18 -96 -18
zM1288 -16q-115 0 -156 81q-35 70 2 153q38 86 127 120q43 16 93 16q117 0 159 -81q35 -69 -2 -152q-38 -85 -127 -119q-45 -18 -96 -18z" />
    <glyph glyph-name="perthousand" unicode="&#x2030;" horiz-adv-x="2678" 
d="M590 1454q79 0 140.5 -24t97.5 -65t54.5 -91.5t18.5 -108.5q0 -74 -27.5 -143.5t-79.5 -127t-136.5 -92t-188.5 -34.5q-79 0 -140.5 23.5t-97.5 64t-54.5 91t-18.5 108.5q0 73 28 143t80 127.5t136.5 93t187.5 35.5zM1358 1432h368l-1191 -1432h-375zM512 1020
q55 0 85 31.5t30 72.5q0 32 -21 54t-61 22q-52 0 -83.5 -32t-31.5 -72q0 -32 21 -54t61 -22zM1427 670q80 0 141.5 -24t98 -65t54.5 -91.5t18 -108.5q0 -74 -27.5 -143.5t-79.5 -127t-136.5 -92t-188.5 -34.5q-155 0 -233.5 82t-78.5 204q0 73 28 143t80.5 128t136.5 93.5
t187 35.5zM1352 236q54 0 83 31.5t29 72.5q0 32 -20.5 54t-61.5 22q-52 0 -82 -32t-30 -73q0 -32 21 -53.5t61 -21.5zM2257 670q80 0 141.5 -23.5t97.5 -65t54 -92t18 -108.5q0 -74 -27.5 -143.5t-79.5 -127t-136.5 -92t-188.5 -34.5q-155 0 -233 82t-78 204q0 73 28 143
t80.5 128t136.5 93.5t187 35.5zM2181 236q53 0 83 31.5t30 72.5q0 32 -20.5 54t-61.5 22q-52 0 -82.5 -32.5t-30.5 -72.5q0 -32 21 -53.5t61 -21.5z" />
    <glyph glyph-name="guilsinglleft" unicode="&#x2039;" horiz-adv-x="806" 
d="M57 598l367 459l397 2l-366 -459q135 -311 207 -461h-398z" />
    <glyph glyph-name="guilsinglright" unicode="&#x203a;" horiz-adv-x="802" 
d="M543 1065l202 -457l-364 -456h-397l362 454l-201 459h398z" />
    <glyph glyph-name="fraction" unicode="&#x2044;" horiz-adv-x="368" 
d="M557 1425h332l-1043 -1435h-331z" />
    <glyph glyph-name="zerosuperior" unicode="&#x2070;" horiz-adv-x="829" 
d="M414 1341l-21 -112q-10 -61 23 -95t86 -34q54 0 99.5 34t55.5 95l21 112q11 63 -23 98.5t-88 35.5q-53 0 -97.5 -35t-55.5 -99zM178 1235l19 108q28 159 147 247.5t262 88.5q66 0 123.5 -21.5t100 -61.5t61 -106t4.5 -147l-18 -108q-20 -109 -86 -190t-150.5 -118.5
t-173.5 -37.5q-67 0 -125 22.5t-100.5 64.5t-60.5 109t-3 150z" />
    <glyph glyph-name="foursuperior" unicode="&#x2074;" horiz-adv-x="817" 
d="M569 1665h277l-80 -448h90l-33 -191h-90l-22 -123h-219l22 123h-389l25 186zM547 1217l39 215l-203 -215h164z" />
    <glyph glyph-name="fivesuperior" unicode="&#x2075;" horiz-adv-x="788" 
d="M864 1667l-33 -192h-368l-12 -68h98q56 0 102 -9.5t87.5 -31.5t65 -65t23.5 -103q0 -69 -22.5 -124.5t-59 -91t-85 -59.5t-97 -34t-98.5 -10q-144 0 -223 66.5t-56 203.5h224q-3 -38 18.5 -58t54.5 -20q43 0 79 25t36 65q0 28 -24 44t-58 16h-307l78 446h577z" />
    <glyph glyph-name="sixsuperior" unicode="&#x2076;" horiz-adv-x="788" 
d="M598 1165q0 29 -26.5 44.5t-63.5 15.5q-47 0 -80 -19.5t-33 -56.5q0 -28 25.5 -43.5t62.5 -15.5q45 0 80 19.5t35 55.5zM854 1440h-207q0 29 -24 45t-60 16q-43 0 -78 -16.5t-39 -44.5l-12 -66q67 33 150 33q100 0 171.5 -55t71.5 -156q0 -64 -23 -116t-60 -85t-86.5 -56
t-101 -32.5t-105.5 -9.5q-61 0 -115 17t-94 49t-58.5 83t-7.5 113l49 281q14 79 71.5 136t132.5 82t159 25q134 0 208 -59.5t58 -183.5z" />
    <glyph glyph-name="sevensuperior" unicode="&#x2077;" horiz-adv-x="671" 
d="M391 903h-248l365 557h-307l37 205h587l-10 -96z" />
    <glyph glyph-name="eightsuperior" unicode="&#x2078;" horiz-adv-x="804" 
d="M381 1141q-6 -26 19 -50t87 -24q60 0 92.5 23t34.5 51q5 27 -24.5 47t-75.5 20q-52 0 -89.5 -18t-43.5 -49zM156 1143q6 36 42 81t87 74q-26 21 -41 55.5t-15 67.5q0 120 103.5 191t257.5 71q123 0 202.5 -55t79.5 -153q0 -113 -106 -170q34 -25 53 -65t19 -79
q0 -73 -32.5 -128.5t-88.5 -88t-124 -48t-144 -13.5q-55 0 -102 8.5t-88.5 27.5t-67 49t-37 73.5t1.5 101.5zM541 1374q49 0 76.5 20.5t27.5 47.5q0 23 -22.5 40t-61.5 17q-48 0 -78 -21t-30 -46t23 -41.5t65 -16.5z" />
    <glyph glyph-name="ninesuperior" unicode="&#x2079;" horiz-adv-x="786" 
d="M432 1411q0 -29 25.5 -43t64.5 -14q45 0 79 19t34 57q0 26 -26 41.5t-62 15.5q-47 0 -81 -20t-34 -56zM168 1139h211q-1 -31 23.5 -47.5t62.5 -16.5q43 0 79 17.5t42 46.5l10 63q-67 -33 -150 -33q-98 0 -169.5 56t-71.5 157q0 74 34.5 132.5t90 93.5t120 53t130.5 18
q82 0 148.5 -28.5t104 -89.5t23.5 -142l-49 -280q-15 -80 -73.5 -138.5t-134 -85t-157.5 -26.5q-140 0 -216.5 61t-57.5 189z" />
    <glyph glyph-name="zeroinferior" unicode="&#x2080;" horiz-adv-x="829" 
d="M225 279l-20 -113q-10 -61 22.5 -95t85.5 -34q54 0 100 34t56 95l20 113q11 63 -22.5 98t-87.5 35t-98.5 -34.5t-55.5 -98.5zM-10 172l18 109q28 159 147.5 247t262.5 88q66 0 123.5 -21t100 -61.5t61 -106t4.5 -146.5l-19 -109q-20 -109 -86 -190t-150 -118.5
t-173 -37.5q-67 0 -125 22.5t-100.5 64.5t-60.5 109t-3 150z" />
    <glyph glyph-name="oneinferior" unicode="&#x2081;" horiz-adv-x="581" 
d="M-68 -160l33 187h125l60 331q-17 -3 -56 -11.5t-53 -10.5l33 188l338 86l-103 -583h129l-32 -187h-474z" />
    <glyph glyph-name="twoinferior" unicode="&#x2082;" horiz-adv-x="778" 
d="M250 369h-215q24 117 126.5 185.5t225.5 68.5q128 0 205.5 -55.5t77.5 -159.5q0 -46 -12 -84.5t-29 -65t-47.5 -49.5t-55 -36.5t-65 -26.5t-64.5 -18.5t-65 -14.5q-44 -9 -67.5 -15t-47 -17.5t-31.5 -27.5h416l-37 -213h-626l34 203q9 52 34.5 92.5t53.5 64t72.5 43
t75 28t78.5 18.5q41 9 61 14t45.5 15t36 23.5t10.5 31.5q0 26 -24.5 39.5t-57.5 13.5q-35 0 -65.5 -15t-42.5 -42z" />
    <glyph glyph-name="threeinferior" unicode="&#x2083;" horiz-adv-x="780" 
d="M301 150h-127l31 169h119q57 0 85.5 19t28.5 49q0 23 -25.5 37t-68.5 16q-41 2 -76.5 -14t-46.5 -45h-196q15 82 74.5 140t132 82t149.5 24q71 0 133 -22.5t105 -73t43 -119.5q0 -112 -109 -176q32 -20 51 -58t19 -80q0 -77 -35.5 -133t-94.5 -85t-121 -41.5t-130 -12.5
q-57 0 -110 15t-97 45t-65.5 81t-10.5 115h229q-1 -31 24 -44t64 -13q47 0 82 18.5t35 52.5q0 24 -24.5 39t-67.5 15z" />
    <glyph glyph-name="fourinferior" unicode="&#x2084;" horiz-adv-x="817" 
d="M381 602h276l-79 -448h90l-33 -191h-90l-23 -123h-219l23 123h-389l24 187zM358 154l39 215l-202 -215h163z" />
    <glyph glyph-name="fiveinferior" unicode="&#x2085;" horiz-adv-x="784" 
d="M678 616l-33 -192h-369l-12 -68h98q56 0 102 -9.5t88 -31.5t65.5 -65t23.5 -103q0 -69 -22.5 -124.5t-59 -91t-85 -59.5t-97 -34t-98.5 -10q-144 0 -223 66.5t-56 203.5h223q-3 -38 19 -58t55 -20q43 0 79 25.5t36 65.5q0 28 -24 43.5t-58 15.5h-307l77 446h578z" />
    <glyph glyph-name="sixinferior" unicode="&#x2086;" horiz-adv-x="788" 
d="M410 98q0 29 -26.5 44.5t-64.5 15.5q-46 0 -79 -19.5t-33 -56.5q0 -28 25.5 -43.5t62.5 -15.5q45 0 80 19.5t35 55.5zM666 373h-207q0 29 -24 45t-60 16q-43 0 -78 -16.5t-39 -44.5l-12 -66q67 33 149 33q100 0 172 -55t72 -156q0 -64 -22.5 -115.5t-59.5 -85t-87 -56.5
t-102 -32.5t-106 -9.5q-129 0 -212.5 70t-61.5 192l49 281q14 79 71.5 136t132 82t158.5 25q134 0 208.5 -59.5t58.5 -183.5z" />
    <glyph glyph-name="seveninferior" unicode="&#x2087;" horiz-adv-x="671" 
d="M205 -160h-248l365 557h-308l37 205h588l-10 -96z" />
    <glyph glyph-name="eightinferior" unicode="&#x2088;" horiz-adv-x="804" 
d="M195 84q-6 -26 19 -50t87 -24q60 0 92.5 23t34.5 51q5 27 -24.5 47.5t-75.5 20.5q-51 0 -89 -18.5t-44 -49.5zM-29 86q5 36 40 81.5t87 74.5q-25 21 -40 55.5t-15 67.5q0 120 103 191t257 71q123 0 203 -55.5t80 -153.5q0 -113 -104 -170q32 -25 50.5 -65t18.5 -79
q0 -73 -32.5 -128.5t-88.5 -88t-124 -48t-144 -13.5q-69 0 -126 14t-100.5 43t-61.5 81t-3 122zM354 317q49 0 77 20.5t28 47.5q0 23 -22.5 40t-61.5 17q-48 0 -77.5 -21t-29.5 -46t22 -41.5t64 -16.5z" />
    <glyph glyph-name="nineinferior" unicode="&#x2089;" horiz-adv-x="790" 
d="M246 352q0 -29 25.5 -43t64.5 -14q45 0 79 19t34 57q0 26 -26.5 41.5t-62.5 15.5q-46 0 -80 -20t-34 -56zM-18 80h211q-1 -31 23.5 -47.5t62.5 -16.5q43 0 78.5 17.5t41.5 46.5l11 63q-65 -32 -150 -32q-99 0 -170.5 56t-71.5 157q0 74 34.5 132.5t90 93.5t120 53
t130.5 18q60 0 114 -17.5t94.5 -49t59.5 -82.5t9 -112l-49 -280q-15 -80 -73.5 -138.5t-134 -85t-157.5 -26.5q-140 0 -216.5 61t-57.5 189z" />
    <glyph glyph-name="Euro" unicode="&#x20ac;" horiz-adv-x="1320" 
d="M53 408l43 247h113q3 17 7 41t6.5 40.5t4.5 21.5h-112l43 239h170q78 150 208 254.5t274 149t291.5 43t270.5 -52.5l-145 -277q-73 35 -157.5 38t-172 -36t-147.5 -119h370l-102 -239h-408q-12 -54 -18 -103h385l-96 -247h-246q39 -66 121.5 -99t172.5 -31.5t171 29.5
l47 -295q-144 -43 -295 -43q-277 0 -440 115t-199 324h-160z" />
    <glyph glyph-name="afii61289" unicode="&#x2113;" horiz-adv-x="843" 
d="M455 489l-31 -176q-9 -53 17.5 -80.5t78.5 -27.5q34 0 139 28l-34 -198q-136 -43 -234 -43q-135 0 -206 71.5t-58 221.5q-11 -5 -30.5 -14.5t-34.5 -16t-25 -10.5l-19 153q61 23 136 58l110 630q34 192 125 272.5t287 80.5q119 0 171 -61.5t52 -162.5q0 -69 -33 -182
q-80 -276 -411 -543zM553 1085l-35 -200q-10 -55 -20 -101l-4 -26q144 166 184 301q2 6 11.5 37t14.5 54t5 46q0 82 -58 82q-30 0 -57.5 -58t-40.5 -135z" />
    <glyph glyph-name="uni2117" unicode="&#x2117;" horiz-adv-x="1652" 
d="M977 1468q151 0 271.5 -48.5t197 -133.5t116.5 -197.5t40 -242.5q0 -171 -64 -328.5t-177 -278.5t-282 -193.5t-366 -72.5q-150 0 -270 48.5t-195.5 134t-115.5 197.5t-40 243q0 170 63.5 328t176.5 278.5t281 193t364 72.5zM319 625q0 -201 112 -328t317 -127
q139 0 256.5 52.5t197 141.5t124 207.5t44.5 249.5q0 129 -47 229.5t-145.5 161t-235.5 60.5q-138 0 -256.5 -53.5t-198 -143t-124 -206.5t-44.5 -244zM762 547h135q162 0 263 110q79 87 81 197q1 111 -82 172q-65 47 -168 47h-348l-129 -729h211zM821 881h137q51 0 64 -45
q13 -42 -17 -78q-27 -31 -73 -31h-139z" />
    <glyph glyph-name="trademark" unicode="&#x2122;" horiz-adv-x="1730" 
d="M657 1212l-71 -401h-248l72 401h-185l39 222h621l-39 -222h-189zM1214 1434l111 -179l168 179h244l-111 -625h-246l25 141l35 148l-146 -162h-57l-88 164l-19 -150l-24 -141h-244l111 625h241z" />
    <glyph glyph-name="Omega" unicode="&#x2126;" horiz-adv-x="1732" 
d="M963 1137q-169 0 -295 -118.5t-156 -287.5q-8 -50 -10 -98.5t11.5 -96t37 -86.5t67 -69t101.5 -45l-60 -336h-632l57 322h190q-76 56 -113.5 160.5t-37.5 211.5q0 158 65 300t180 248.5t285 169.5t369 63q309 0 482 -162.5t173 -427.5q0 -168 -84.5 -326.5t-234.5 -236.5
h198l-57 -322h-633l60 336q97 23 170 75t114 119t60.5 137t19.5 140q0 149 -85.5 239.5t-241.5 90.5z" />
    <glyph glyph-name="estimated" unicode="&#x212e;" horiz-adv-x="1308" 
d="M565 -14q-212 0 -343.5 127.5t-131.5 357.5q0 135 36.5 251t100.5 201t150.5 145t187.5 90t209 30q79 0 147.5 -14.5t129.5 -47.5t103.5 -83t67.5 -126t25 -172q0 -110 -45 -237h-768l-55 -309q76 -70 211 -70q115 0 217 39.5t194 148.5l97 -81q-121 -137 -249 -193.5
t-284 -56.5zM752 1053q-136 0 -234 -64l-59 -332h448l60 336q-80 60 -215 60z" />
    <glyph glyph-name="onethird" unicode="&#x2153;" horiz-adv-x="1751" 
d="M1243 1436h227l-1058 -1446h-222zM1294 309h-127l31 170h119q57 0 85 19t28 49q0 23 -25 37t-68 16q-41 2 -76.5 -14t-46.5 -45h-196q11 62 48 111t88.5 77t107.5 42.5t112 14.5q71 0 133 -22.5t105 -73t43 -119.5q0 -112 -109 -176q32 -20 51 -57.5t19 -79.5
q0 -77 -35.5 -133t-94.5 -85t-121 -41.5t-130 -12.5q-57 0 -110 15t-97 45t-66 81t-12 115h230q0 -58 88 -58q47 0 81.5 19t34.5 53q0 24 -23.5 38.5t-66.5 14.5zM100 690l33 187h137l60 331q-16 -3 -57.5 -11.5t-55.5 -10.5l33 188l328 86l-103 -583h129l-33 -187h-471z
" />
    <glyph glyph-name="twothirds" unicode="&#x2154;" horiz-adv-x="1880" 
d="M1391 1436h227l-1061 -1446h-221zM1427 309h-127l29 170h119q57 0 86 19t29 49q0 23 -25 37t-68 16q-41 2 -76.5 -14t-45.5 -45h-197q11 62 48 111t88.5 77t107.5 42.5t112 14.5q111 0 195 -56.5t84 -158.5q0 -114 -109 -176q32 -20 51 -57.5t19 -79.5q0 -77 -35.5 -133
t-94.5 -85t-120.5 -41.5t-128.5 -12.5q-57 0 -110.5 15t-97.5 45t-66 81t-11 115h230q-1 -31 24 -44.5t64 -13.5q47 0 82 19t35 53q0 24 -24.5 38.5t-66.5 14.5zM408 1190h-215q24 117 126.5 185.5t225.5 68.5q127 0 204.5 -55.5t77.5 -159.5q0 -62 -22 -109t-46 -73.5
t-79 -49t-80.5 -29t-90.5 -20.5q-11 -3 -17 -4q-38 -8 -53.5 -12t-38 -12.5t-35 -20.5t-21.5 -31h416l-37 -206h-627l35 202q6 37 21 68.5t32 53.5t44 40.5t48.5 29.5t55.5 22t54.5 15.5t55.5 12.5q77 17 116.5 35t39.5 53q0 26 -24 39.5t-58 13.5q-35 0 -65.5 -15
t-42.5 -42z" />
    <glyph glyph-name="oneeighth" unicode="&#x215b;" horiz-adv-x="1744" 
d="M1243 1436h227l-1058 -1446h-222zM100 690l33 187h137l60 331q-16 -3 -57.5 -11.5t-55.5 -10.5l33 188l328 86l-103 -583h129l-33 -187h-471zM1145 244q-8 -28 20 -54t95 -26q65 0 100 25t39 55q5 30 -27 51.5t-84 21.5q-56 0 -96.5 -19.5t-46.5 -53.5zM930 246
q6 36 41.5 81t85.5 74q-25 22 -40.5 56.5t-15.5 66.5q0 119 104 190.5t257 71.5q124 0 203.5 -55t79.5 -153q0 -112 -105 -170q33 -26 52.5 -66t19.5 -78q0 -73 -33 -128.5t-89 -88t-124.5 -48t-144.5 -13.5q-69 0 -126 14t-100.5 43t-61.5 81t-3 122zM1313 475
q51 0 79.5 21.5t28.5 50.5q0 25 -23 41t-63 16q-52 0 -81 -20t-29 -49q0 -25 22.5 -42.5t65.5 -17.5z" />
    <glyph glyph-name="threeeighths" unicode="&#x215c;" horiz-adv-x="1869" 
d="M1368 1436h227l-1058 -1446h-222zM1268 244q-6 -28 21.5 -54t94.5 -26q66 0 101 25t37 55q6 30 -25.5 51.5t-83.5 21.5q-56 0 -97.5 -19.5t-47.5 -53.5zM1055 246q5 36 40 81t87 74q-26 21 -41 55.5t-15 67.5q0 120 103.5 191t257.5 71q123 0 202.5 -55t79.5 -153
q0 -113 -106 -170q34 -25 53 -65t19 -79q0 -73 -32.5 -128.5t-88.5 -88t-124 -48t-144 -13.5q-69 0 -126 14t-100.5 43t-61.5 81t-3 122zM1438 475q51 0 79.5 21.5t28.5 50.5q0 25 -23 41t-65 16q-52 0 -80 -20t-28 -49q0 -25 22.5 -42.5t65.5 -17.5zM467 975h-127l31 170
h118q57 0 86 18.5t29 48.5q0 23 -25.5 37.5t-68.5 16.5q-40 2 -76 -14.5t-47 -45.5h-197q11 62 48 111t89 77.5t108 43t112 14.5q111 0 195.5 -56.5t84.5 -158.5q0 -113 -108 -176q32 -20 50.5 -57.5t18.5 -79.5q0 -77 -35.5 -133.5t-94.5 -85t-120.5 -41.5t-129.5 -13
q-57 0 -110 15t-97 45t-65.5 81t-10.5 115h229q-1 -31 24 -44t64 -13q47 0 82 19t35 53q0 24 -24.5 38.5t-67.5 14.5z" />
    <glyph glyph-name="fiveeighths" unicode="&#x215d;" horiz-adv-x="1849" 
d="M1350 1436h227l-1061 -1446h-221zM1249 244q-8 -28 20 -54t95 -26q65 0 100 25t39 55q5 30 -26.5 51.5t-83.5 21.5q-56 0 -97 -19.5t-47 -53.5zM1034 246q6 36 41.5 81t85.5 74q-24 21 -38.5 55.5t-14.5 67.5q0 120 103 191t257 71q123 0 203 -55t80 -153
q0 -113 -106 -170q34 -25 52.5 -65t18.5 -79q0 -96 -58 -161.5t-143 -92t-188 -24.5q-55 0 -102 8.5t-88.5 27.5t-67 49t-37 73.5t1.5 101.5zM1419 475q51 0 80 21.5t29 50.5q0 25 -23.5 41t-64.5 16q-52 0 -81.5 -20t-29.5 -49q0 -25 23.5 -42.5t66.5 -17.5zM813 1432
l-33 -193h-368l-13 -68h99q278 0 278 -208q0 -69 -22.5 -124.5t-59 -91t-85 -60t-97 -34.5t-98.5 -10q-144 0 -223 66.5t-56 203.5h223q-3 -37 19 -57t55 -20q43 0 79 25t36 65q0 28 -24 43.5t-58 15.5h-307l78 447h577z" />
    <glyph glyph-name="seveneighths" unicode="&#x215e;" horiz-adv-x="1744" 
d="M1214 1436h228l-1061 -1446h-221zM1145 244q-6 -28 21 -54t94 -26q65 0 100 25t39 55q5 30 -27 51.5t-84 21.5q-56 0 -96.5 -19.5t-46.5 -53.5zM930 246q6 36 42 81t87 74q-25 21 -40 55.5t-15 67.5q0 120 103 191t257 71q123 0 203 -55t80 -153q0 -113 -107 -170
q34 -25 53 -65t19 -79q0 -73 -32.5 -128.5t-88.5 -88t-124 -48t-144 -13.5q-55 0 -102 8.5t-88.5 27.5t-67 49t-37 73.5t1.5 101.5zM1315 475q51 0 79.5 21.5t28.5 50.5q0 25 -23 41t-65 16q-52 0 -81 -20t-29 -49q0 -25 23.5 -42.5t66.5 -17.5zM377 672h-248l365 557h-308
l37 205h588l-10 -97z" />
    <glyph glyph-name="arrowleft" unicode="&#x2190;" horiz-adv-x="1294" 
d="M498 211l-416 502l594 499l141 -155l-248 -211h664l-47 -273h-670l164 -219z" />
    <glyph glyph-name="arrowup" unicode="&#x2191;" horiz-adv-x="1120" 
d="M94 799l590 504l412 -506l-189 -168l-172 211l-119 -666h-270l119 672l-254 -203z" />
    <glyph glyph-name="arrowright" unicode="&#x2192;" horiz-adv-x="1292" 
d="M838 1214l413 -499l-592 -500l-143 156l246 209h-664l49 274h672q-30 41 -89.5 116.5t-78.5 100.5z" />
    <glyph glyph-name="arrowdown" unicode="&#x2193;" horiz-adv-x="1122" 
d="M1067 639l-590 -504l-409 506l182 168l174 -209l119 664h272l-119 -672q49 39 143.5 115.5t110.5 89.5z" />
    <glyph glyph-name="uni2196" unicode="&#x2196;" horiz-adv-x="1073" 
d="M82 395l125 711l708 -4l-32 -225l-295 -3l389 -471l-234 -190l-387 471l-63 -297z" />
    <glyph glyph-name="uni2197" unicode="&#x2197;" horiz-adv-x="1079" 
d="M291 891l45 211h708q-11 -61 -33.5 -181.5t-31.5 -172.5l-61 -355l-226 -8q4 26 13.5 83.5t13.5 84.5l22 129l-557 -471l-155 199l557 471z" />
    <glyph glyph-name="uni2198" unicode="&#x2198;" horiz-adv-x="1142" 
d="M203 307l30 211l297 10l-389 471l226 199l391 -471l22 131q4 24 15.5 81.5t15.5 84.5l223 -8q-7 -40 -19.5 -112.5t-22.5 -133t-19 -111.5q-45 -254 -62 -352h-708z" />
    <glyph glyph-name="uni2199" unicode="&#x2199;" horiz-adv-x="1144" 
d="M881 518l-45 -211h-709l61 352q10 55 33 175.5t33 181.5l229 8q-7 -30 -16.5 -89t-13.5 -77l-23 -131l557 471l156 -199l-555 -471z" />
    <glyph glyph-name="partialdiff" unicode="&#x2202;" horiz-adv-x="1204" 
d="M616 987q74 0 113 -16q-44 73 -157.5 131.5t-200.5 66.5l104 267q120 -9 224 -47.5t181.5 -100.5t135.5 -145.5t88 -183t37.5 -212.5t-15.5 -235q-44 -237 -213.5 -382.5t-418.5 -145.5q-115 0 -205.5 35t-145.5 95.5t-83.5 136t-28.5 161.5q0 113 40.5 216.5
t113.5 183.5t185 127.5t246 47.5zM541 297q106 0 173 93q58 79 52 170q-6 92 -79 124q-29 12 -66 12q-102 0 -168 -93q-57 -80 -51 -171q5 -92 76 -123q27 -12 63 -12z" />
    <glyph glyph-name="Delta" unicode="&#x2206;" horiz-adv-x="1761" 
d="M1602 35l-7 -35h-1646l4 25l868 1409h410zM956 1028l-411 -702h569z" />
    <glyph glyph-name="product" unicode="&#x220f;" horiz-adv-x="1427" 
d="M1108 -371h-379l262 1483h-364l-262 -1483h-388l318 1805h1130z" />
    <glyph glyph-name="summation" unicode="&#x2211;" 
d="M868 750l-360 -418h618l-59 -332h-1083l36 211l459 543q-116 232 -256 501l31 179h1053l-56 -316h-555z" />
    <glyph glyph-name="minus" unicode="&#x2212;" horiz-adv-x="1105" 
d="M88 412l55 311h861l-56 -311h-860z" />
    <glyph glyph-name="uni2215" unicode="&#x2215;" horiz-adv-x="1054" 
d="M899 1425h332l-1043 -1435h-331z" />
    <glyph glyph-name="uni2219" unicode="&#x2219;" horiz-adv-x="612" 
d="M92 608q0 104 77.5 166t176.5 62q77 0 130.5 -44t53.5 -122q0 -70 -39.5 -123t-96 -78t-118.5 -25q-77 0 -130.5 43t-53.5 121z" />
    <glyph glyph-name="radical" unicode="&#x221a;" horiz-adv-x="1300" 
d="M1454 1489l-754 -1489h-260l-217 606l-151 -55l-45 190l483 203l149 -498l568 1115z" />
    <glyph glyph-name="infinity" unicode="&#x221e;" horiz-adv-x="1572" 
d="M758 461q-199 -169 -338 -156q-171 6 -249 104.5t-56 233.5q25 142 145 245t299 103q69 0 146 -46.5t118 -108.5q80 69 168 112t154 43q161 0 246.5 -82t85.5 -211q0 -73 -29.5 -142t-83 -124.5t-138 -90t-186.5 -36.5q-149 -7 -282 156zM1081 555q76 0 112 56
q30 47 8 89q-23 43 -87 43q-50 0 -166 -96q75 -92 133 -92zM475 555q57 0 166 92q-84 96 -133 96q-76 0 -112 -56q-30 -47 -8 -89q23 -43 87 -43z" />
    <glyph glyph-name="integral" unicode="&#x222b;" horiz-adv-x="1073" 
d="M236 27l176 995q28 126 98.5 220.5t162 142.5t192 64.5t195.5 -5t165 -74.5l-181 -280q-39 27 -78.5 40t-77 10.5t-65 -32.5t-37.5 -86l-176 -995q-27 -120 -91 -212.5t-148.5 -142t-178.5 -66.5t-188.5 8.5t-171.5 88.5l166 256q18 -18 43.5 -32t55.5 -20t57.5 1t50 37
t31.5 82z" />
    <glyph glyph-name="approxequal" unicode="&#x2248;" horiz-adv-x="1159" 
d="M281 641l-162 104q71 115 172 180t203 40q30 -7 80.5 -30t92.5 -40t88 -26.5t85.5 8.5t66.5 67l174 -78q-60 -140 -150.5 -196.5t-197.5 -38.5q-71 6 -211 59q-35 14 -53.5 20.5t-48 11.5t-49.5 -2t-44.5 -26t-45.5 -53zM236 254l-160 102q70 116 172 181t203 41
q30 -7 80.5 -30t92.5 -40t88 -27t85.5 8.5t66.5 67.5l174 -80q-59 -138 -151 -194.5t-199 -38.5q-78 7 -209 59q-41 17 -66 24t-59 8t-62.5 -19.5t-55.5 -61.5z" />
    <glyph glyph-name="notequal" unicode="&#x2260;" horiz-adv-x="1191" 
d="M53 248l53 305h336q15 21 48.5 69t56.5 78h-414l53 308h586l150 198l174 -104l-76 -94h119l-54 -308h-286q-13 -17 -51.5 -66.5t-59.5 -80.5h371l-53 -305h-545q-26 -35 -77.5 -106t-70.5 -97l-170 109l72 94h-162z" />
    <glyph glyph-name="lessequal" unicode="&#x2264;" horiz-adv-x="954" 
d="M18 90l45 250h748l-45 -250h-748zM154 872l4 17l598 442l155 -182l-338 -262l244 -258l-219 -191z" />
    <glyph glyph-name="greaterequal" unicode="&#x2265;" horiz-adv-x="950" 
d="M805 340l-45 -250h-748l45 250h748zM903 889l-4 -17l-596 -434l-153 191l337 258l-247 262l221 182z" />
    <glyph glyph-name="lozenge" unicode="&#x25ca;" horiz-adv-x="1314" 
d="M1276 717l-565 -719h-316l-317 719l571 721h316zM465 717l151 -375l271 373l-137 381z" />
    <glyph glyph-name="commaaccent" unicode="&#xf6c3;" horiz-adv-x="782" 
d="M506 -221q0 -95 -180 -354h-199l78 200q-88 16 -88 105q0 86 69 135t162 49q68 0 113 -35t45 -100z" />
    <glyph glyph-name="fi" unicode="&#xfb01;" horiz-adv-x="1449" 
d="M1053 1243q0 101 76.5 160t173.5 59q75 0 127.5 -43t52.5 -119q0 -101 -76 -159t-172 -58q-76 0 -129 42.5t-53 117.5zM854 0h379l176 995h-379zM899 1151l119 260q-76 45 -219 45q-98 0 -177 -19.5t-149 -64.5t-117.5 -128.5t-66.5 -201.5l-8 -49h-172l-52 -286h172
l-125 -707h377l125 707h244l51 286h-244l9 49q10 62 48 93.5t87 31.5q62 0 98 -16z" />
    <glyph glyph-name="fl" unicode="&#xfb02;" horiz-adv-x="1449" 
d="M1233 0h-371l252 1425h371zM1018 1411l-119 -260q-36 16 -98 16q-49 0 -87 -31.5t-48 -93.5l-9 -49h244l-51 -286h-244l-125 -707h-377l125 707h-172l52 286h172l8 49q19 118 66.5 201.5t117.5 128.5t149 64.5t177 19.5q143 0 219 -45z" />
    <glyph glyph-name="CR" horiz-adv-x="659" 
 />
    <glyph glyph-name="g.alt" horiz-adv-x="1261" 
d="M-45 -72h354q-12 -47 -6 -80.5t18 -55t36.5 -34t50 -17.5t57.5 -5q88 0 151.5 44t63.5 124q0 50 -38.5 81t-123.5 31q-225 0 -354 114t-129 310q0 134 54.5 248.5t146.5 191.5t212.5 120.5t251.5 43.5q105 0 201 -38q15 15 43 44t50.5 52.5t39.5 42.5l240 -195l-160 -155
q84 -116 49 -273q-19 -96 -82.5 -185t-160.5 -151q83 -53 116 -125t33 -135q0 -102 -38 -185.5t-101.5 -140t-148.5 -95.5t-178 -56.5t-191 -17.5q-271 0 -392.5 132.5t-64.5 364.5zM645 735q-99 0 -168 -66t-69 -175q0 -75 45.5 -120.5t119.5 -45.5q94 0 162 61.5t68 171.5
q0 74 -44 124t-114 50z" />
    <glyph glyph-name="gcircumflex.alt" horiz-adv-x="1255" 
d="M-45 -72h354q-12 -47 -6 -80.5t18 -55t36.5 -34t50 -17.5t57.5 -5q88 0 151.5 44t63.5 124q0 50 -38.5 81t-123.5 31q-225 0 -354 114t-129 310q0 134 54.5 248.5t146.5 191.5t212.5 120.5t251.5 43.5q105 0 201 -38l103 108l253 -164l-143 -155q84 -116 49 -273
q-19 -96 -82.5 -185t-160.5 -151q83 -53 116 -125t33 -135q0 -102 -38 -185.5t-101.5 -140t-148.5 -95.5t-178 -56.5t-191 -17.5q-271 0 -392.5 132.5t-64.5 364.5zM645 735q-99 0 -168 -66t-69 -175q0 -75 45.5 -120.5t119.5 -45.5q94 0 162 61.5t68 171.5q0 74 -44 124
t-114 50zM686 1475h234l254 -310l-3 -16h-323l-88 94l-121 -94h-326l2 16z" />
    <glyph glyph-name="gbreve.alt" horiz-adv-x="1261" 
d="M436 1487h281q-5 -27 1 -45.5t20 -26.5t25.5 -11t22.5 -3q18 0 36 5t40.5 25.5t28.5 55.5h278q-23 -156 -140.5 -247t-285.5 -91q-167 0 -253 91t-54 247zM-45 -72h354q-12 -47 -6 -80.5t18 -55t36.5 -34t50 -17.5t57.5 -5q88 0 151.5 44t63.5 124q0 50 -38.5 81
t-123.5 31q-225 0 -354 114t-129 310q0 134 54.5 248.5t146.5 191.5t212.5 120.5t251.5 43.5q105 0 201 -38q15 15 43 44t50.5 52.5t39.5 42.5l240 -195l-160 -155q84 -116 49 -273q-19 -96 -82.5 -185t-160.5 -151q83 -53 116 -125t33 -135q0 -102 -38 -185.5t-101.5 -140
t-148.5 -95.5t-178 -56.5t-191 -17.5q-271 0 -392.5 132.5t-64.5 364.5zM645 735q-99 0 -168 -66t-69 -175q0 -75 45.5 -120.5t119.5 -45.5q94 0 162 61.5t68 171.5q0 74 -44 124t-114 50z" />
    <glyph glyph-name="gdotaccent.alt" horiz-adv-x="1261" 
d="M557 1290q0 95 74 151t168 56q73 0 125.5 -41t52.5 -113q0 -93 -74.5 -147.5t-167.5 -54.5q-75 0 -126.5 39.5t-51.5 109.5zM-45 -72h354q-12 -47 -6 -80.5t18 -55t36.5 -34t50 -17.5t57.5 -5q88 0 151.5 44t63.5 124q0 50 -38.5 81t-123.5 31q-225 0 -354 114t-129 310
q0 134 54.5 248.5t146.5 191.5t212.5 120.5t251.5 43.5q105 0 201 -38q15 15 43 44t50.5 52.5t39.5 42.5l240 -195l-160 -155q84 -116 49 -273q-19 -96 -82.5 -185t-160.5 -151q83 -53 116 -125t33 -135q0 -102 -38 -185.5t-101.5 -140t-148.5 -95.5t-178 -56.5t-191 -17.5
q-271 0 -392.5 132.5t-64.5 364.5zM645 735q-99 0 -168 -66t-69 -175q0 -75 45.5 -120.5t119.5 -45.5q94 0 162 61.5t68 171.5q0 74 -44 124t-114 50z" />
    <glyph glyph-name="gcommaaccent.alt" horiz-adv-x="1261" 
d="M571 1296q0 95 181 355h198l-78 -201q89 -16 89 -104q0 -86 -69.5 -135.5t-162.5 -49.5q-68 0 -113 35t-45 100zM-45 -72h354q-12 -47 -6 -80.5t18 -55t36.5 -34t50 -17.5t57.5 -5q88 0 151.5 44t63.5 124q0 50 -38.5 81t-123.5 31q-225 0 -354 114t-129 310
q0 134 54.5 248.5t146.5 191.5t212.5 120.5t251.5 43.5q105 0 201 -38q15 15 43 44t50.5 52.5t39.5 42.5l240 -195l-160 -155q84 -116 49 -273q-19 -96 -82.5 -185t-160.5 -151q83 -53 116 -125t33 -135q0 -102 -38 -185.5t-101.5 -140t-148.5 -95.5t-178 -56.5t-191 -17.5
q-271 0 -392.5 132.5t-64.5 364.5zM645 735q-99 0 -168 -66t-69 -175q0 -75 45.5 -120.5t119.5 -45.5q94 0 162 61.5t68 171.5q0 74 -44 124t-114 50z" />
    <glyph glyph-name="commaaccent.alt" horiz-adv-x="772" 
d="M397 1159q0 94 178 354h199l-78 -200q88 -16 88 -105q0 -86 -69 -135t-162 -49q-67 0 -111.5 35t-44.5 100z" />
    <glyph glyph-name="zero.tf" horiz-adv-x="1474" 
d="M524 825l-43 -239q-28 -156 28 -227.5t173 -71.5q115 0 196 71.5t109 227.5l43 239q26 151 -28.5 222t-167.5 71q-118 0 -200 -69.5t-110 -223.5zM84 586l43 235q28 161 102 284.5t178.5 197.5t227 111.5t258.5 37.5q108 0 198.5 -24t163 -73.5t117 -124.5t59.5 -177.5
t-8 -231.5l-43 -233q-22 -127 -74 -231.5t-124 -177t-161.5 -122.5t-187.5 -73t-202 -23q-132 0 -240.5 36t-189 109t-113 196t-4.5 284z" />
    <glyph glyph-name="one.tf" horiz-adv-x="1474" 
d="M115 0l55 311h346l121 682l-328 -100l56 315l747 252l-203 -1149h351l-56 -311h-1089z" />
    <glyph glyph-name="two.tf" horiz-adv-x="1474" 
d="M606 981h-395q22 121 87.5 214t159.5 148.5t205 83t234 27.5q156 0 272 -41.5t183 -129t67 -212.5q0 -117 -34.5 -209.5t-95.5 -155t-149 -103.5t-190 -59t-223 -18q-35 0 -63 -3t-63.5 -13.5t-61 -29.5t-47 -53.5t-29.5 -82.5h823l-61 -344h-1211l60 334q89 512 710 512
q36 0 73 8.5t74 26.5t60 53t23 82q0 59 -49.5 88t-122.5 29q-193 0 -236 -152z" />
    <glyph glyph-name="three.tf" horiz-adv-x="1474" 
d="M737 588h-260l49 286h242q34 0 66 5t66 17t58 37t31 60q11 54 -37 92.5t-139 38.5q-89 0 -155.5 -35t-79.5 -106h-390q20 102 70.5 184t118 135.5t152 89.5t169.5 51t174 15q78 0 152 -12.5t144 -42t122 -73t83.5 -110t31.5 -147.5q0 -111 -68.5 -204t-177.5 -136
q90 -36 132 -104t42 -154q0 -109 -46.5 -197t-121 -143.5t-172 -93t-193.5 -53t-192 -15.5q-90 0 -173 16t-158 54t-125.5 94t-72 142.5t-1.5 193.5h397q-7 -47 7.5 -81t45.5 -53.5t70.5 -28.5t87.5 -9q89 0 157 43.5t68 120.5q0 20 -6.5 38t-23 39t-53.5 33.5t-91 12.5z
" />
    <glyph glyph-name="four.tf" horiz-adv-x="1474" 
d="M977 1434h375l-152 -867h154l-58 -319h-153l-43 -248h-381l43 248h-731l32 336zM479 567h340l66 375z" />
    <glyph glyph-name="five.tf" horiz-adv-x="1474" 
d="M1391 1434l-60 -330h-690l-29 -172h193q55 0 103 -3.5t97 -11.5t89 -21.5t78 -33.5t65 -46.5t50 -61.5t32 -79t11.5 -98t-11.5 -118q-18 -102 -68.5 -184.5t-118 -136t-152 -89.5t-167.5 -51.5t-168 -15.5q-133 0 -234 26.5t-173.5 83.5t-100.5 154t-6 229h395
q-14 -83 40 -125.5t132 -42.5q27 0 58 6.5t67.5 21.5t64.5 47t36 77q8 40 -1 69.5t-27.5 45.5t-46.5 25.5t-51 12t-50 2.5h-568l146 820h1065z" />
    <glyph glyph-name="six.tf" horiz-adv-x="1474" 
d="M1421 1022h-387q6 62 -47.5 93.5t-144.5 31.5t-166.5 -46.5t-89.5 -125.5l-25 -135q69 45 165.5 71.5t184.5 26.5q207 0 331 -101t124 -286q0 -118 -41.5 -215t-110.5 -162t-162.5 -109.5t-195 -64.5t-209.5 -20q-95 0 -181 17.5t-161.5 56t-126.5 95t-72.5 141
t-3.5 187.5l86 498q17 99 66 181t117.5 138t155.5 94.5t179 56t189 17.5q101 0 185 -13.5t156.5 -46t118.5 -82t64.5 -125.5t1.5 -173zM705 311q106 0 179.5 51t73.5 138q0 70 -51 108.5t-141 38.5q-126 0 -196 -55t-70 -135q0 -61 53.5 -103.5t151.5 -42.5z" />
    <glyph glyph-name="seven.tf" horiz-adv-x="1474" 
d="M600 0h-434l749 1100h-645l58 334h1138l-20 -183z" />
    <glyph glyph-name="eight.tf" horiz-adv-x="1474" 
d="M735 598q-116 0 -189 -46t-73 -124q0 -62 58.5 -97.5t148.5 -35.5q96 0 170 38.5t84 110.5q12 69 -41 111.5t-158 42.5zM55 446q13 70 77.5 159t166.5 138q-63 51 -86.5 125t-9.5 160q19 107 78.5 190.5t149 137t201 81t238.5 27.5q173 0 305.5 -47t203.5 -147t46 -238
q-14 -85 -65.5 -157t-134.5 -117q75 -45 106 -119.5t31 -149.5q0 -109 -37.5 -197t-104 -147.5t-160.5 -99.5t-202.5 -58t-234.5 -18q-95 0 -175.5 11t-152 34.5t-122 61t-85 90.5t-41.5 122.5t8 157.5zM772 864q124 0 189 75q52 59 35 123q-18 66 -101 87q-31 8 -68 8
q-124 0 -189 -75q-51 -59 -34 -123q18 -67 102 -88q30 -7 66 -7z" />
    <glyph glyph-name="nine.tf" horiz-adv-x="1474" 
d="M82 416h387q-6 -62 48 -93.5t145 -31.5q93 0 174.5 49t97.5 135l20 123q-81 -57 -165 -77.5t-183 -20.5q-207 0 -330.5 101t-123.5 286q0 118 41.5 215t111 162t162.5 109.5t194.5 64.5t208.5 20q95 0 181 -17.5t161.5 -56t126.5 -95t72.5 -141t3.5 -187.5l-84 -484
q-18 -105 -69 -190.5t-121.5 -142.5t-159 -95.5t-181.5 -56t-190 -17.5q-128 0 -228.5 23t-178 72.5t-110 137.5t-11.5 208zM813 1126q-106 0 -180 -50.5t-74 -137.5q0 -70 51.5 -108.5t141.5 -38.5q126 0 196 55t70 135q0 61 -53.5 103t-151.5 42z" />
    <glyph glyph-name="Euro.tf" horiz-adv-x="1474" 
d="M133 408l43 247h113q3 17 7 41t6.5 40.5t4.5 21.5h-112l43 239h170q78 150 208 254.5t274 149t291.5 43t270.5 -52.5l-149 -289q-87 34 -167.5 39.5t-163.5 -29.5t-143 -115h371l-102 -239h-408q-12 -54 -18 -103h385l-96 -247h-232q63 -87 199.5 -115t251.5 14l47 -295
q-144 -43 -295 -43q-277 0 -440 115t-199 324h-160z" />
    <glyph glyph-name="cent.tf" horiz-adv-x="1474" 
d="M991 377l176 -225q-158 -124 -323 -158l-27 -156h-330l29 168q-133 39 -211 139.5t-78 262.5q0 121 37 223.5t102.5 175t147.5 122t180 77.5l31 174h330l-29 -160q151 -32 242 -143l-238 -218q-59 74 -162 74q-118 0 -192 -79t-74 -185q0 -76 48 -126t138 -50
q113 0 203 84z" />
    <glyph glyph-name="sterling.tf" horiz-adv-x="1474" 
d="M709 897q0 -54 2 -72h387l-49 -278h-340q-2 -54 -32.5 -122.5t-70.5 -102.5h682l-57 -322h-1180l58 319q91 3 150.5 75t66.5 153h-179l50 278h122q0 6 -1 29.5t-1 30.5q0 253 169.5 411t457.5 158q118 0 208 -28.5t149.5 -86t78.5 -145t-6 -205.5h-358q12 73 -19.5 110.5
t-95.5 37.5q-89 0 -140.5 -59.5t-51.5 -180.5z" />
    <glyph glyph-name="florin.tf" horiz-adv-x="1474" 
d="M1186 690h-262l-123 -692q-19 -110 -70.5 -196t-119.5 -136t-149 -75.5t-160 -21.5t-152.5 33.5t-126.5 82.5l155 227q27 -27 50 -38t59 -11q49 0 87.5 33t49.5 100l123 694h-223l51 291h223l10 61q14 86 52 156.5t88.5 117.5t113.5 79.5t127 46.5t129 14q198 0 287 -104
l-158 -234q-49 49 -127 49q-49 0 -87 -31.5t-48 -93.5l-10 -61h262z" />
    <glyph glyph-name="yen.tf" horiz-adv-x="1474" 
d="M131 225l43 244h322l16 84h-322l46 260h163l-284 604l2 17h450l109 -252l100 -287l207 285l203 254h450l-2 -19l-516 -602h164l-45 -260h-328l-16 -84h328l-43 -244h-328l-39 -225h-397l39 225h-322z" />
    <glyph glyph-name="dollar.tf" horiz-adv-x="1474" 
d="M418 -225l35 192q-132 16 -233 72t-189 172l268 256q138 -162 391 -162q109 0 179.5 38t70.5 101q0 47 -56 78t-163 41q-91 9 -160 22.5t-138 41.5t-113 67.5t-71.5 103t-27.5 146.5q0 109 40.5 198t111.5 148.5t158.5 98t191.5 57.5l32 186h345l-31 -182
q205 -30 344 -158l-246 -256q-115 99 -317 99q-56 0 -103 -12t-80.5 -41t-33.5 -72q0 -20 6.5 -35.5t22 -26.5t31.5 -18t45 -13t51.5 -9t60.5 -7q80 -9 150.5 -26t137 -49.5t114 -76t76 -108.5t28.5 -145q0 -113 -44 -205.5t-121.5 -155t-173.5 -103t-210 -59.5h2l-37 -198
h-344z" />
    <glyph glyph-name="zero.denom" horiz-adv-x="829" 
d="M252 426l-21 -113q-10 -61 23 -95t86 -34q54 0 100 34t56 95l20 113q11 63 -22.5 98t-87.5 35t-98.5 -34.5t-55.5 -98.5zM16 319l19 109q28 159 147 247.5t262 88.5q66 0 123.5 -21.5t100 -61.5t61 -106t4.5 -147l-18 -109q-20 -109 -86 -190t-150.5 -118.5t-173.5 -37.5
q-67 0 -125 22.5t-100.5 64.5t-60.5 109t-3 150z" />
    <glyph glyph-name="one.denom" horiz-adv-x="579" 
d="M-41 0l33 186h125l59 332q-17 -3 -55.5 -11.5t-52.5 -10.5l32 188l338 86l-102 -584h129l-33 -186h-473z" />
    <glyph glyph-name="two.denom" horiz-adv-x="780" 
d="M279 528h-216q24 117 127 185.5t226 68.5q127 0 204.5 -55.5t77.5 -159.5q0 -46 -12 -84.5t-29 -65t-47.5 -49.5t-55 -36.5t-65 -26.5t-64.5 -18.5t-65 -14.5q-45 -9 -67.5 -14.5t-46 -17t-31.5 -27.5h416l-37 -213h-627l35 203q9 52 34 92.5t53 64t72.5 43t75 28
t78.5 18.5q30 6 41.5 9l34.5 9t33 11.5t23 13.5t17.5 18t4.5 22q0 26 -24 40t-58 14q-35 0 -65.5 -15.5t-42.5 -42.5z" />
    <glyph glyph-name="three.denom" horiz-adv-x="780" 
d="M328 299h-127l30 170h119q57 0 86 19t29 49q0 23 -25.5 37t-68.5 16q-40 2 -76 -14.5t-47 -45.5h-197q11 62 48 111t89 77.5t108 43t112 14.5q111 0 195.5 -56.5t84.5 -158.5q0 -113 -108 -176q32 -20 50.5 -57.5t18.5 -79.5q0 -62 -24.5 -111t-62.5 -79t-90 -49
t-102 -26.5t-102 -7.5q-57 0 -110 15t-96.5 45t-65 81t-10.5 115h229q-1 -31 24 -44t64 -13q47 0 82 19t35 53q0 24 -24.5 38.5t-67.5 14.5z" />
    <glyph glyph-name="four.denom" horiz-adv-x="817" 
d="M410 762h276l-80 -449h90l-32 -190h-91l-22 -123h-219l22 123h-389l25 186zM387 313l39 215q-31 -32 -97.5 -103t-105.5 -112h164z" />
    <glyph glyph-name="five.denom" horiz-adv-x="786" 
d="M705 762l-33 -193h-369l-12 -67h98q56 0 102 -9.5t88 -31.5t65.5 -65t23.5 -103q0 -85 -34 -149.5t-89 -100t-116 -53t-124 -17.5q-144 0 -222.5 67t-55.5 204h223q-3 -38 19 -58t55 -20q43 0 78.5 25t35.5 65q0 28 -24 43.5t-58 15.5h-307l78 447h578z" />
    <glyph glyph-name="six.denom" horiz-adv-x="790" 
d="M438 256q0 29 -26 44t-64 15q-46 0 -79 -19t-33 -56q0 -28 25.5 -44t62.5 -16q44 0 79 20t35 56zM694 530h-207q0 29 -24 45.5t-60 16.5q-42 0 -77 -17t-39 -45l-13 -65q67 33 150 33q100 0 172 -55t72 -156q0 -60 -23 -110.5t-60.5 -84.5t-87 -58t-102 -35t-104.5 -11
q-61 0 -115 17t-94 49t-58.5 83t-7.5 113l50 280q14 79 71 136t132.5 82.5t158.5 25.5q134 0 208 -60t58 -184z" />
    <glyph glyph-name="seven.denom" horiz-adv-x="671" 
d="M233 0h-247l364 557h-307l37 205h588l-11 -96z" />
    <glyph glyph-name="eight.denom" horiz-adv-x="806" 
d="M223 240q-8 -25 17.5 -49.5t87.5 -24.5q60 0 92.5 23t36.5 51q5 27 -25.5 47t-77.5 20q-52 0 -89.5 -18t-41.5 -49zM-2 242q6 36 41.5 81t85.5 74q-25 22 -40 56t-15 67q0 119 103.5 190.5t256.5 71.5q124 0 203.5 -55.5t79.5 -153.5q0 -112 -105 -170q33 -26 52.5 -65.5
t19.5 -77.5q0 -73 -33 -128.5t-89 -88t-124.5 -48t-144.5 -13.5q-69 0 -126 14t-100.5 43t-61.5 81t-3 122zM383 473q49 0 75.5 20.5t26.5 47.5q0 23 -22.5 40t-61.5 17q-48 0 -77 -21t-29 -47q0 -25 23 -41t65 -16z" />
    <glyph glyph-name="nine.denom" horiz-adv-x="786" 
d="M272 504q0 -29 26 -43.5t64 -14.5q45 0 79 19t34 57q0 27 -26 42.5t-62 15.5q-47 0 -81 -20t-34 -56zM8 231h211q-1 -31 23.5 -47t62.5 -16q43 0 79 17t42 46l10 64q-67 -33 -149 -33q-99 0 -170.5 56t-71.5 157q0 74 34.5 132.5t90 93.5t120 53t130.5 18
q82 0 148.5 -28.5t104 -89.5t23.5 -142l-49 -281q-15 -80 -73 -138t-133.5 -84.5t-157.5 -26.5q-141 0 -217.5 60.5t-57.5 188.5z" />
    <glyph glyph-name="zero.num" horiz-adv-x="829" 
d="M373 1110l-21 -113q-10 -61 23 -95t86 -34q54 0 99.5 34t55.5 95l21 113q11 64 -22 99.5t-87 35.5t-99 -35.5t-56 -99.5zM137 1004l19 108q19 108 84 186.5t149.5 115t175.5 36.5q66 0 123.5 -21.5t100 -62.5t61 -107t4.5 -147l-18 -108q-20 -109 -86 -190t-150.5 -119
t-173.5 -38q-67 0 -125 22.5t-100.5 64.5t-60.5 109.5t-3 150.5z" />
    <glyph glyph-name="one.num" horiz-adv-x="581" 
d="M80 682l33 186h125l59 332q-17 -3 -56 -11.5t-53 -10.5l33 188l338 88l-102 -586h129l-33 -186h-473z" />
    <glyph glyph-name="two.num" horiz-adv-x="776" 
d="M393 1190h-215q24 118 127.5 187t226.5 69q126 0 203.5 -56t77.5 -161q0 -46 -12 -84.5t-29 -65t-47 -49.5t-55 -36t-64.5 -25.5t-64 -18.5t-64.5 -14q-64 -13 -100 -26.5t-47 -35.5h415l-36 -212h-627l35 202q7 38 22 69.5t32 53.5t45.5 41t48.5 30t56 22.5t53.5 16
t55.5 13.5q102 24 128 42t26 44t-24 39.5t-56 13.5q-36 0 -68 -15.5t-43 -43.5z" />
    <glyph glyph-name="three.num" horiz-adv-x="782" 
d="M449 971h-127l30 172h119q57 0 86 18t29 47q0 25 -25 40.5t-67 15.5t-78 -16t-47 -46h-197q15 82 75 140.5t133.5 83t149.5 24.5q111 0 195 -57.5t84 -159.5q0 -113 -109 -174q32 -20 51 -58t19 -81q0 -77 -35.5 -133t-94.5 -84.5t-120.5 -41t-128.5 -12.5q-45 0 -88.5 9
t-83.5 29t-68 48.5t-41 72t-4 95.5h230q-1 -30 24 -42.5t64 -12.5q48 0 82.5 18t34.5 54q0 24 -24 37.5t-68 13.5z" />
    <glyph glyph-name="four.num" horiz-adv-x="819" 
d="M528 1434h277l-80 -451h90l-33 -190h-90l-22 -123h-219l22 123h-389l25 186zM506 983l39 215q-188 -198 -203 -215h164z" />
    <glyph glyph-name="five.num" horiz-adv-x="782" 
d="M817 1427l-33 -192h-368l-13 -70h99q278 0 278 -209q0 -69 -22.5 -124.5t-59 -90.5t-85 -58.5t-97 -33.5t-98.5 -10q-144 0 -223 65.5t-56 202.5h223q-3 -36 19 -56t55 -20q43 0 79 25t36 64q0 29 -23.5 44t-58.5 15h-307l78 448h577z" />
    <glyph glyph-name="six.num" horiz-adv-x="784" 
d="M553 930q0 29 -26.5 44t-63.5 15q-47 0 -80 -19.5t-33 -56.5q0 -28 25 -42.5t63 -14.5q45 0 80 19t35 55zM809 1204h-207q0 31 -24 46.5t-60 15.5q-43 0 -78 -16.5t-39 -45.5l-12 -63q61 30 150 30q100 0 171.5 -54.5t71.5 -155.5q0 -74 -34.5 -133t-90 -94t-120.5 -53.5
t-131 -18.5q-82 0 -149 29t-104 90.5t-22 142.5l49 280q14 79 71.5 136.5t133 83.5t158.5 26q133 0 207.5 -61t58.5 -185z" />
    <glyph glyph-name="seven.num" horiz-adv-x="671" 
d="M350 666h-248l365 559h-307l37 205h587l-10 -97z" />
    <glyph glyph-name="eight.num" horiz-adv-x="804" 
d="M340 909q-6 -26 19 -48.5t87 -22.5q60 0 92.5 22t34.5 49q5 28 -24 48t-76 20q-52 0 -89.5 -18t-43.5 -50zM115 911q8 38 43.5 83t85.5 73q-25 21 -40.5 56t-15.5 67q0 120 104 192t257 72q123 0 202.5 -56t79.5 -155q0 -114 -106 -170q34 -24 53 -64t19 -79
q0 -97 -57.5 -162t-142.5 -91t-189 -24q-55 0 -102 8.5t-88.5 27t-67 48.5t-37 73t1.5 101zM502 1145q49 0 75.5 19t26.5 46q0 25 -22 41.5t-62 16.5q-48 0 -78 -20.5t-30 -47.5q0 -24 23 -39.5t67 -15.5z" />
    <glyph glyph-name="nine.num" horiz-adv-x="786" 
d="M391 1178q0 -29 26 -44.5t64 -15.5q44 0 78.5 19.5t34.5 56.5q0 28 -25.5 43.5t-60.5 15.5q-48 0 -82.5 -19.5t-34.5 -55.5zM127 903h211q-1 -30 23.5 -45.5t62.5 -15.5q44 0 79.5 16t41.5 45l10 64q-73 -31 -149 -31q-99 0 -170.5 55t-71.5 156q0 74 34.5 133.5t90 94.5
t120 53t130.5 18q60 0 114 -17t94 -49t59 -83t9 -113l-49 -281q-22 -117 -129 -182.5t-236 -65.5q-141 0 -217 60t-57 188z" />
    <glyph glyph-name="parenleft.case" horiz-adv-x="796" 
d="M788 1694l138 -201q-232 -166 -380.5 -417.5t-148.5 -522.5q0 -174 64.5 -340t169.5 -268l-199 -217q-179 135 -270.5 342.5t-91.5 451.5q0 183 54.5 357.5t152 322t226.5 271t285 221.5z" />
    <glyph glyph-name="parenright.case" horiz-adv-x="800" 
d="M182 1493l209 201q170 -138 269.5 -356.5t99.5 -463.5q0 -227 -72 -434.5t-228 -396.5t-386 -326l-144 228q218 156 362 407t144 506q0 183 -70.5 355t-183.5 280z" />
    <glyph glyph-name="hyphen.case" horiz-adv-x="1071" 
d="M109 528l53 301h823l-53 -301h-823z" />
    <glyph glyph-name="bracketleft.case" horiz-adv-x="790" 
d="M567 -174h-555l312 1761h555l-54 -297h-217l-205 -1167h218z" />
    <glyph glyph-name="bracketright.case" horiz-adv-x="790" 
d="M504 -174h-555l53 297h217l205 1167h-217l53 297h555z" />
    <glyph glyph-name="braceleft.case" horiz-adv-x="815" 
d="M639 96l-49 -270q-119 -21 -193 -21q-177 0 -244 94.5t-36 264.5l51 289q5 18 2.5 38t-10.5 36.5t-33.5 27t-67.5 10.5l47 262q79 0 109.5 32t38.5 83l49 272q32 184 128.5 280.5t279.5 96.5q86 0 188 -18l-45 -250q-28 6 -51 7.5t-48 -3.5t-43.5 -19t-34 -41t-22.5 -67
l-51 -287q-8 -48 -13 -69t-19 -54t-39 -55.5t-64 -42.5q37 -23 53.5 -57t14.5 -72t-9 -84l-49 -278q-6 -36 1 -60t20 -35t39 -14t46 -2t54 6z" />
    <glyph glyph-name="bar.case" horiz-adv-x="665" 
d="M672 1505l-295 -1677h-363l295 1677h363z" />
    <glyph glyph-name="braceright.case" horiz-adv-x="817" 
d="M-49 -174l47 270q32 -5 52 -6t47 2t44 14t32 35t22 60l49 278q14 79 41.5 129t93.5 84q-25 15 -40.5 34.5t-22 35.5t-6.5 43.5t2 43.5t8 52q1 8 2 12l49 287q10 41 2 67t-20 40.5t-37 19.5t-48 3.5t-53 -7.5l43 250q108 18 195 18q183 0 245.5 -96.5t30.5 -280.5
l-49 -272q-5 -20 -3 -40.5t10 -37t33.5 -27t67.5 -10.5l-45 -262q-78 0 -109.5 -32t-39.5 -80l-51 -289q-65 -359 -406 -359q-76 0 -186 21z" />
    <glyph glyph-name="guilsinglleft.case" horiz-adv-x="839" 
d="M102 680l365 459h354l-364 -459l209 -457h-359z" />
    <glyph glyph-name="guilsinglright.case" horiz-adv-x="839" 
d="M561 1139l203 -459l-365 -457h-358l369 457l-203 459h354z" />
    <glyph glyph-name="guillemotleft.case" horiz-adv-x="1314" 
d="M102 680l365 459h354l-364 -459l209 -457h-359zM578 680l364 459h354l-364 -459l209 -457h-359z" />
    <glyph glyph-name="guillemotright.case" horiz-adv-x="1314" 
d="M1036 1139l203 -459l-365 -457h-358l369 457l-203 459h354zM561 1139l203 -459l-365 -457h-358l369 457l-203 459h354z" />
    <glyph glyph-name="endash.case" horiz-adv-x="1275" 
d="M106 512l54 299h1026l-53 -299h-1027z" />
    <glyph glyph-name="emdash.case" horiz-adv-x="1454" 
d="M106 514l54 299h1204l-53 -299h-1205z" />
    <glyph glyph-name="bullet.case" horiz-adv-x="903" 
d="M410 354q-124 0 -199.5 66t-75.5 178q0 145 110.5 241.5t266.5 96.5q117 0 191.5 -69t74.5 -179q0 -147 -108 -240.5t-260 -93.5z" />
    <glyph glyph-name="periodcentered.case" horiz-adv-x="651" 
d="M299 469q-121 0 -165 84q-36 72 1 158q37 88 127 126q50 21 107 21q120 0 164 -84q36 -72 0 -158q-37 -88 -127 -126q-50 -21 -107 -21z" />
    <glyph glyph-name="a.alt" horiz-adv-x="1171" 
d="M592 1038q53 0 99 -3t92.5 -9.5t83.5 -17.5t72.5 -28t60 -39.5t45.5 -52t29 -67t11.5 -83.5t-8.5 -101l-112 -637h-342l2 104q-131 -122 -299 -122q-157 0 -241.5 79t-84.5 218q0 103 43.5 181.5t117 123t160 66.5t183.5 22q94 0 198 -33q7 65 -40.5 94t-129.5 29
q-173 0 -339 -68l-7 250q213 94 406 94zM375 330q0 -70 102 -70q52 0 109 32.5t78 96.5q-66 41 -158 41q-60 0 -95.5 -26.5t-35.5 -73.5z" />
    <glyph glyph-name="agrave.alt" horiz-adv-x="1171" 
d="M592 1038q53 0 99 -3t92.5 -9.5t83.5 -17.5t73 -28t60.5 -39.5t45.5 -52t29 -67t11 -83.5t-9 -101l-112 -637h-342l2 104q-131 -122 -299 -122q-157 0 -241.5 79t-84.5 218q0 103 43.5 181.5t117 123t160 66.5t183.5 22q94 0 198 -33q7 65 -40.5 94t-129.5 29
q-173 0 -339 -68l-7 250q213 94 406 94zM375 330q0 -70 102 -70q52 0 109 32.5t78 96.5q-66 41 -158 41q-60 0 -95.5 -26.5t-35.5 -73.5zM397 1421l4 15h369l96 -289l-2 -10h-307z" />
    <glyph glyph-name="aacute.alt" horiz-adv-x="1171" 
d="M592 1038q-193 0 -406 -94l7 -250q166 68 339 68q82 0 129.5 -29t40.5 -94q-104 33 -198 33q-97 0 -183.5 -22t-160 -66.5t-117 -123t-43.5 -181.5q0 -139 84.5 -218t241.5 -79q168 0 299 122l-2 -104h342l112 637q12 55 9 101t-11 83.5t-29 67t-45.5 52t-60.5 39.5
t-73 28t-83.5 17.5t-92.5 9.5t-99 3zM375 330q0 47 35.5 73.5t95.5 26.5q92 0 158 -41q-21 -64 -78 -96.5t-109 -32.5q-102 0 -102 70zM1079 1436l-4 -15l-258 -284h-307l2 10l199 289h368z" />
    <glyph glyph-name="acircumflex.alt" horiz-adv-x="1171" 
d="M592 1038q-193 0 -406 -94l7 -250q166 68 339 68q82 0 129.5 -29t40.5 -94q-104 33 -198 33q-97 0 -183.5 -22t-160 -66.5t-117 -123t-43.5 -181.5q0 -139 84.5 -218t241.5 -79q168 0 299 122l-2 -104h342l112 637q12 55 9 101t-11 83.5t-29 67t-45.5 52t-60.5 39.5
t-73 28t-83.5 17.5t-92.5 9.5t-99 3zM375 330q0 47 35.5 73.5t95.5 26.5q92 0 158 -41q-21 -64 -78 -96.5t-109 -32.5q-102 0 -102 70zM639 1452h225l244 -301l-2 -16h-311l-84 90l-117 -90h-313l2 16z" />
    <glyph glyph-name="atilde.alt" horiz-adv-x="1171" 
d="M592 1038q53 0 99 -3t92.5 -9.5t83.5 -17.5t73 -28t60.5 -39.5t45.5 -52t29 -67t11 -83.5t-9 -101l-112 -637h-342l2 104q-131 -122 -299 -122q-157 0 -241.5 79t-84.5 218q0 103 43.5 181.5t117 123t160 66.5t183.5 22q94 0 198 -33q7 65 -40.5 94t-129.5 29
q-173 0 -339 -68l-7 250q213 94 406 94zM375 330q0 -70 102 -70q52 0 109 32.5t78 96.5q-66 41 -158 41q-60 0 -95.5 -26.5t-35.5 -73.5zM670 1178q-134 83 -201 -29l-170 127q34 67 88 112.5t112.5 63t118.5 11t109 -37.5q54 -40 107 -35.5t100 68.5l162 -125
q-73 -139 -186.5 -182t-239.5 27z" />
    <glyph glyph-name="adieresis.alt" horiz-adv-x="1171" 
d="M592 1038q-193 0 -406 -94l7 -250q166 68 339 68q82 0 129.5 -29t40.5 -94q-104 33 -198 33q-97 0 -183.5 -22t-160 -66.5t-117 -123t-43.5 -181.5q0 -139 84.5 -218t241.5 -79q168 0 299 122l-2 -104h342l112 637q12 55 9 101t-11 83.5t-29 67t-45.5 52t-60.5 39.5
t-73 28t-83.5 17.5t-92.5 9.5t-99 3zM375 330q0 47 35.5 73.5t95.5 26.5q92 0 158 -41q-21 -64 -78 -96.5t-109 -32.5q-102 0 -102 70zM270 1272q0 87 66 139.5t149 52.5q66 0 112 -38.5t46 -104.5q0 -85 -67 -136.5t-150 -51.5q-65 0 -110.5 37t-45.5 102zM772 1272
q0 87 67 139.5t152 52.5q65 0 111.5 -38.5t46.5 -104.5q0 -85 -67.5 -136.5t-149.5 -51.5q-67 0 -113.5 37t-46.5 102z" />
    <glyph glyph-name="amacron.alt" horiz-adv-x="1171" 
d="M348 1174l45 256h692l-45 -256h-692zM592 1038q53 0 99 -3t92.5 -9.5t83.5 -17.5t73 -28t60.5 -39.5t45.5 -52t29 -67t11 -83.5t-9 -101l-112 -637h-342l2 104q-131 -122 -299 -122q-157 0 -241.5 79t-84.5 218q0 103 43.5 181.5t117 123t160 66.5t183.5 22q94 0 198 -33
q7 65 -40.5 94t-129.5 29q-173 0 -339 -68l-7 250q213 94 406 94zM375 330q0 -70 102 -70q52 0 109 32.5t78 96.5q-66 41 -158 41q-60 0 -95.5 -26.5t-35.5 -73.5z" />
    <glyph glyph-name="abreve.alt" horiz-adv-x="1169" 
d="M590 1038q53 0 99 -3t92.5 -9.5t83.5 -17.5t73 -28t60.5 -39.5t45.5 -52t29 -67t11 -83.5t-9 -101l-112 -637h-342l2 104q-131 -122 -299 -122q-157 0 -241.5 79t-84.5 218q0 100 43.5 178t117 123.5t160.5 68.5t183 23q94 0 198 -33q7 65 -40.5 94t-129.5 29
q-94 0 -186.5 -21.5t-153.5 -46.5l-6 250q213 94 406 94zM373 330q0 -70 102 -70q52 0 109 32.5t78 96.5q-66 41 -158 41q-60 0 -95.5 -26.5t-35.5 -73.5zM391 1446h268q-5 -27 1 -45t19.5 -25.5t24.5 -10.5t23 -3q17 0 34 4.5t38.5 24.5t27.5 55h269q-24 -151 -138 -238.5
t-276 -87.5q-161 0 -242.5 87.5t-48.5 238.5z" />
    <glyph glyph-name="aring.alt" horiz-adv-x="1169" 
d="M590 1038q53 0 99 -3t92.5 -9.5t83.5 -17.5t73 -28t60.5 -39.5t45.5 -52t29 -67t11 -83.5t-9 -101l-112 -637h-342l2 104q-131 -122 -299 -122q-157 0 -241.5 79t-84.5 218q0 100 43.5 178t117 123.5t160.5 68.5t183 23q94 0 198 -33q7 65 -40.5 94t-129.5 29
q-94 0 -186.5 -21.5t-153.5 -46.5l-6 250q213 94 406 94zM373 330q0 -70 102 -70q52 0 109 32.5t78 96.5q-66 41 -158 41q-60 0 -95.5 -26.5t-35.5 -73.5zM760 1581q167 0 235 -98q55 -78 22 -178q-34 -102 -138 -160q-89 -49 -205 -49q-165 0 -231 98q-54 79 -21 179
q35 102 139 160q87 48 199 48zM733 1407q-64 0 -90 -46q-21 -37 3 -67q19 -24 63 -24q61 0 86 46q22 38 -3 68q-20 23 -59 23z" />
    <glyph glyph-name="aringacute.alt" horiz-adv-x="1169" 
d="M590 1038q-193 0 -406 -94l6 -250q61 25 153.5 46.5t186.5 21.5q82 0 129.5 -29t40.5 -94q-104 33 -198 33q-96 0 -183 -23t-160.5 -68.5t-117 -123.5t-43.5 -178q0 -139 84.5 -218t241.5 -79q168 0 299 122l-2 -104h342l112 637q12 55 9 101t-11 83.5t-29 67t-45.5 52
t-60.5 39.5t-73 28t-83.5 17.5t-92.5 9.5t-99 3zM373 330q0 47 35.5 73.5t95.5 26.5q92 0 158 -41q-21 -64 -78 -96.5t-109 -32.5q-102 0 -102 70zM756 1565q-164 0 -260 -101q-76 -79 -72 -176q4 -98 90 -150q63 -38 160 -38q166 0 264 101q75 79 71 176q-5 98 -91 149
q-65 39 -162 39zM729 1403q59 0 73 -42q12 -38 -20 -70q-29 -29 -77 -29q-61 0 -75 42q-13 37 20 69q29 30 79 30zM1219 1860l-2 -13l-267 -233h-311l2 8l205 238h373z" />
    <glyph glyph-name="aogonek.alt" horiz-adv-x="1169" 
d="M1075 637l-129 -727q-23 7 -57 8.5t-68.5 -4.5t-57.5 -28t-20 -56q2 -24 33 -31.5t65.5 -2t57.5 15.5l86 -158q-52 -36 -119.5 -56t-134 -19t-123.5 18.5t-93 61t-38 105.5q-3 80 40.5 142.5t119.5 93.5l-8 109q-137 -127 -305 -127q-157 0 -241.5 79t-84.5 218
q0 100 43.5 178t117 123.5t160.5 68.5t183 23q94 0 198 -33q7 65 -40.5 94t-129.5 29q-94 0 -186.5 -21.5t-153.5 -46.5l-6 250q213 94 406 94q53 0 99 -3t92.5 -9.5t83.5 -17.5t73 -28t60.5 -39.5t45.5 -52t29 -67t11 -83.5t-9 -101zM373 330q0 -70 102 -70q52 0 109 32.5
t78 96.5q-66 41 -158 41q-60 0 -95.5 -26.5t-35.5 -73.5z" />
    <glyph glyph-name="y.alt" horiz-adv-x="1189" 
d="M877 1012h403l-881 -1440h-393l289 473l-232 967h400l43 -242l49 -350l184 352z" />
    <glyph glyph-name="yacute.alt" horiz-adv-x="1189" 
d="M1280 1012h-403l-138 -240l-184 -352l-49 350l-43 242h-400l232 -967l-289 -473h393zM1130 1460l-2 -16l-280 -326h-330l2 12l215 330h395z" />
    <glyph glyph-name="ycircumflex.alt" horiz-adv-x="1189" 
d="M1280 1012h-403l-138 -240l-184 -352l-49 350l-43 242h-400l232 -967l-289 -473h393zM616 1456h234l254 -321l-2 -17h-324l-88 96l-121 -96h-323l2 17z" />
    <glyph glyph-name="ydieresis.alt" horiz-adv-x="1189" 
d="M1280 1012h-403l-138 -240l-184 -352l-49 350l-43 242h-400l232 -967l-289 -473h393zM242 1255q0 93 68.5 148t156.5 55q68 0 117 -40t49 -109q0 -90 -70 -143.5t-157 -53.5q-69 0 -116.5 38.5t-47.5 104.5zM836 1257q0 92 69.5 146.5t159.5 54.5q67 0 115.5 -40
t48.5 -109q0 -89 -70.5 -143t-154.5 -54q-71 0 -119.5 38.5t-48.5 106.5z" />
    <glyph glyph-name="ygrave.alt" horiz-adv-x="1189" 
d="M387 1436l4 16h395l99 -330l-2 -12h-330zM877 1012h403l-881 -1440h-393l289 473l-232 967h400l43 -242l49 -350l184 352z" />
    </font>
</defs>
</svg>
